1. Die erweiterte Suche funktioniert wieder. Die LiveSearch ist vorübergehend deaktiviert

Wir verwenden Cookies, um deinen Aufenthalt auf Animes.so möglichst angenehm gestalten zu können. Mehr erfahren

Tate no Yuusha no Nariagari | The Rising of the Shield Hero [Jap-Dub][Ger-Eng-Sub][720p|1080p][WebRip] - CR

Dieses Thema im Forum "Serien (GerSub)" wurde erstellt von Ta@, 24. Jan. 2019.

  1. Ta@

    Ta@ Treues Mitglied Seelenverkäufer

    Registriert seit:
    7. Juli 2016
    Beiträge:
    427
    Zustimmungen:
    18.074
    Tate no Yuusha no Nariagari
    The Rising of the Shield Hero
    Tate no Yusha no Nariagari, The Rising of the Shield Hero

    [​IMG]
    [​IMG]

    Iwatani Naofumi ist ein einfacher Student. Eines Tages wird er mit drei anderen Studenten in ein fremdes Königreich transferiert. Fortan sind die vier als „die vier Helden“ bekannt. Naofumi ist der Held des Schildes und gilt somit als Schwächster der Helden. Schon bald wird er Opfer eines Komplotts und findet sich allein wieder, ohne Geld, Freunde und mit einem ramponierten Ruf. Alles was ihm bleibt, ist sein Schild, und so macht sich Naofumi auf die Reise, sich zu rächen.

    Folgen: 17/24
    Größe pro Folge: ~350 MB/~850 MB
    Folgendauer: ~24 Min
    Releaser: Ta@
    Art: Lizenzrelease
    Sprache: Japanisch
    Untertitel: Deutsch, Englisch
    Jahr: 2019
    Genres: Action, Abenteuer, Komödie, Drama, Fantasy, Harem, Romanze
    Auflösung: 1280x720/1920x1080
    Format: MKV
    Quelle: WebRip
    Videocodec: x264
    Farbtiefe: 8Bit
    Audiocodec: AAC
    Publisher: Crunchyroll
    Hoster: Share-Online

    [​IMG]
    Code:
    General Complete name : [Ta@]The_Rising_of_the_Shield_Hero_01_[Web,720p,AAC].mkv Format : Matroska Format version : Version 4 File size : 644 MiB Duration : 47 min 20 s Overall bit rate : 1 902 kb/s Encoded date : UTC 2019-01-05 23:41:12 Writing application : mkvmerge v26.0.0 ('In The Game') 64-bit Writing library : libebml v1.3.6 + libmatroska v1.4.9 Attachments : lt.ttf Video ID : 1 Format : AVC Format/Info : Advanced Video Codec Format profile : High@L4 Format settings : CABAC / 6 Ref Frames Format settings, CABAC : Yes Format settings, RefFrames : 6 frames Codec ID : V_MPEG4/ISO/AVC Duration : 45 min 44 s Bit rate : 1 837 kb/s Width : 1 280 pixels Height : 720 pixels Display aspect ratio : 16:9 Frame rate mode : Constant Frame rate : 23.976 (23976/1000) FPS Color space : YUV Chroma subsampling : 4:2:0 Bit depth : 8 bits Scan type : Progressive Bits/(Pixel*Frame) : 0.083 Stream size : 601 MiB (93%) Writing library : x264 core 142 Encoding settings : cabac=1 / ref=6 / deblock=1:1:1 / analyse=0x3:0x113 / me=umh / subme=8 / psy=1 / psy_rd=0.40:0.00 / mixed_ref=1 / me_range=16 / chroma_me=1 / trellis=1 / 8x8dct=1 / cqm=0 / deadzone=21,11 / fast_pskip=1 / chroma_qp_offset=-2 / threads=10 / lookahead_threads=1 / sliced_threads=0 / nr=0 / decimate=1 / interlaced=0 / bluray_compat=0 / constrained_intra=0 / bframes=3 / b_pyramid=2 / b_adapt=2 / b_bias=0 / direct=3 / weightb=1 / open_gop=0 / weightp=2 / keyint=48 / keyint_min=25 / scenecut=0 / intra_refresh=0 / rc_lookahead=48 / rc=crf / mbtree=1 / crf=15.0 / qcomp=0.60 / qpmin=0 / qpmax=69 / qpstep=4 / vbv_maxrate=4000 / vbv_bufsize=6000 / crf_max=0.0 / nal_hrd=none / filler=0 / ip_ratio=1.40 / aq=1:0.60 Default : Yes Forced : No Audio ID : 2 Format : AAC LC Format/Info : Advanced Audio Codec Low Complexity Codec ID : A_AAC-2 Duration : 45 min 45 s Bit rate : 128 kb/s Channel(s) : 2 channels Channel layout : L R Sampling rate : 44.1 kHz Frame rate : 43.066 FPS (1024 SPF) Compression mode : Lossy Delay relative to video : -83 ms Stream size : 41.9 MiB (7%) Default : Yes Forced : No Text #1 ID : 3 Format : ASS Codec ID : S_TEXT/ASS Codec ID/Info : Advanced Sub Station Alpha Duration : 46 min 20 s Bit rate : 158 b/s Count of elements : 730 Compression mode : Lossless Stream size : 53.8 KiB (0%) Language : German Default : Yes Forced : No Text #2 ID : 4 Format : ASS Codec ID : S_TEXT/ASS Codec ID/Info : Advanced Sub Station Alpha Duration : 44 min 24 s Bit rate : 164 b/s Count of elements : 783 Compression mode : Lossless Stream size : 53.6 KiB (0%) Language : English Default : No Forced : No ​
    Code:
    General Complete name : [Ta@]The_Rising_of_the_Shield_Hero_01_[Web,1080p,AAC].mkv Format : Matroska Format version : Version 4 File size : 1.47 GiB Duration : 47 min 20 s Overall bit rate : 4 460 kb/s Encoded date : UTC 2019-01-05 23:41:17 Writing application : mkvmerge v26.0.0 ('In The Game') 64-bit Writing library : libebml v1.3.6 + libmatroska v1.4.9 Attachments : lt.ttf Video ID : 1 Format : AVC Format/Info : Advanced Video Codec Format profile : High@L4 Format settings : CABAC / 4 Ref Frames Format settings, CABAC : Yes Format settings, RefFrames : 4 frames Codec ID : V_MPEG4/ISO/AVC Duration : 45 min 44 s Bit rate : 4 484 kb/s Width : 1 920 pixels Height : 1 080 pixels Display aspect ratio : 16:9 Frame rate mode : Constant Frame rate : 23.976 (23976/1000) FPS Color space : YUV Chroma subsampling : 4:2:0 Bit depth : 8 bits Scan type : Progressive Bits/(Pixel*Frame) : 0.090 Stream size : 1.43 GiB (97%) Writing library : x264 core 142 Encoding settings : cabac=1 / ref=4 / deblock=1:1:1 / analyse=0x3:0x113 / me=umh / subme=8 / psy=1 / psy_rd=0.40:0.00 / mixed_ref=1 / me_range=16 / chroma_me=1 / trellis=1 / 8x8dct=1 / cqm=0 / deadzone=21,11 / fast_pskip=1 / chroma_qp_offset=-2 / threads=12 / lookahead_threads=2 / sliced_threads=0 / nr=0 / decimate=1 / interlaced=0 / bluray_compat=0 / constrained_intra=0 / bframes=3 / b_pyramid=2 / b_adapt=2 / b_bias=0 / direct=3 / weightb=1 / open_gop=0 / weightp=2 / keyint=48 / keyint_min=25 / scenecut=0 / intra_refresh=0 / rc_lookahead=48 / rc=crf / mbtree=1 / crf=15.0 / qcomp=0.60 / qpmin=0 / qpmax=69 / qpstep=4 / vbv_maxrate=8000 / vbv_bufsize=12000 / crf_max=0.0 / nal_hrd=none / filler=0 / ip_ratio=1.40 / aq=1:0.60 Default : Yes Forced : No Audio ID : 2 Format : AAC LC Format/Info : Advanced Audio Codec Low Complexity Codec ID : A_AAC-2 Duration : 45 min 45 s Bit rate : 128 kb/s Channel(s) : 2 channels Channel layout : L R Sampling rate : 44.1 kHz Frame rate : 43.066 FPS (1024 SPF) Compression mode : Lossy Delay relative to video : -83 ms Stream size : 41.9 MiB (3%) Default : Yes Forced : No Text #1 ID : 3 Format : ASS Codec ID : S_TEXT/ASS Codec ID/Info : Advanced Sub Station Alpha Duration : 46 min 20 s Bit rate : 158 b/s Count of elements : 730 Compression mode : Lossless Stream size : 53.8 KiB (0%) Language : German Default : Yes Forced : No Text #2 ID : 4 Format : ASS Codec ID : S_TEXT/ASS Codec ID/Info : Advanced Sub Station Alpha Duration : 44 min 24 s Bit rate : 164 b/s Count of elements : 783 Compression mode : Lossless Stream size : 53.6 KiB (0%) Language : English Default : No Forced : No ​

    Anmerkung:
    Ich habe das Timing verbessert und die Font gefixt.

    720p:[​IMG]1080p:[​IMG]

    Geschützter Bereich
    Registriere dich oder logge dich ein, um den Inhalt sehen zu können
     
    Zuletzt bearbeitet: 2. Mai 2019
    goldratte, ItsMeee, Magicmanx und 134 anderen gefällt das.
  2. Tomoya

    Tomoya Kleiner Experte Otaku Experte

    Registriert seit:
    16. Juni 2013
    Beiträge:
    77
    Zustimmungen:
    996
    Tate no Yuusha no Nariagari | The Rising of the Shield Hero |
    盾の勇者の成り上がり


    [​IMG]

    [​IMG]
    Als er so durch die leeren Seiten blättert, wird der nichts ahnende Naofumi kurzerhand in eine mittelalterlich anmutende Welt transportiert und als er wieder zu sich kommt, findet er sich gemeinsam mit drei weiteren jungen Männern in einem Thronsaal unter den wachsamen Blicken des Königs und seines Hofstaats wieder. Alle drei haben eine eigene Waffe bekommen: Motoyasu Kitamura hat einen Speer, Ren Amaki trägt ein Schwert und Itsuki Kawasumi hält einen Bogen in der Hand. Naofumi selbst ging natürlich auch nicht leer aus, denn er hat … einen Schild?! Ein kurzes Gespräch mit dem König und seinen Beratern bestätigt, was die vier jungen Männer bereits vermutet hatten: Sie sind als „Helden“ in eine andere Welt beschworen worden, um diese vor bösen Monstern zu retten.


    Sprache: Japanisch
    Untertitel: Deutsch
    Episoden: 25/25
    Auflösung: 1920x1080p

    Dauer pro Folge: 24 Minuten
    Genres: Action, Abenteuer Fantasy, Drama
    Jahr: 2019

    Format: MKV
    Quelle: WebRip
    Videocodec: H.264
    Audiocodec: AAC
    Größe pro Folge: ca. 900MB | Doppelfolge 1,5GB

    Releasegruppe: TSP
    Hoster: Share-Online

    [​IMG]
    General
    Complete name : [TSP] Tate no Yuusha no Nariagari 01 GerSub [WebRip,1080p,AAC].mkv
    Format : Matroska
    Format version : Version 4 / Version 2
    File size : 1.47 GiB
    Duration : 47 min 20 s
    Overall bit rate : 4 460 kb/s
    Encoded date : UTC 2019-06-02 16:11:11
    Writing application : mkvmerge v34.0.0 ('Sight and Seen') 64-bit
    Writing library : libebml v1.3.7 + libmatroska v1.5.0
    Attachments : OpenSans-Semibold.ttf

    Video
    ID : 1
    Format : AVC
    Format/Info : Advanced Video Codec
    Format profile : High@L4
    Format settings, CABAC : Yes
    Format settings, RefFrames : 4 frames
    Codec ID : V_MPEG4/ISO/AVC
    Duration : 45 min 44 s
    Bit rate : 4 484 kb/s
    Width : 1 920 pixels
    Height : 1 080 pixels
    Display aspect ratio : 16:9
    Frame rate mode : Constant
    Frame rate : 23.976 (23976/1000) FPS
    Color space : YUV
    Chroma subsampling : 4:2:0
    Bit depth : 8 bits
    Scan type : Progressive
    Bits/(Pixel*Frame) : 0.090
    Stream size : 1.43 GiB (97%)
    Writing library : x264 core 142
    Encoding settings : cabac=1 / ref=4 / deblock=1:1:1 / analyse=0x3:0x113 / me=umh / subme=8 / psy=1 / psy_rd=0.40:0.00 / mixed_ref=1 / me_range=16 / chroma_me=1 / trellis=1 / 8x8dct=1 / cqm=0 / deadzone=21,11 / fast_pskip=1 / chroma_qp_offset=-2 / threads=12 / lookahead_threads=2 / sliced_threads=0 / nr=0 / decimate=1 / interlaced=0 / bluray_compat=0 / constrained_intra=0 / bframes=3 / b_pyramid=2 / b_adapt=2 / b_bias=0 / direct=3 / weightb=1 / open_gop=0 / weightp=2 / keyint=48 / keyint_min=25 / scenecut=0 / intra_refresh=0 / rc_lookahead=48 / rc=crf / mbtree=1 / crf=15.0 / qcomp=0.60 / qpmin=0 / qpmax=69 / qpstep=4 / vbv_maxrate=8000 / vbv_bufsize=12000 / crf_max=0.0 / nal_hrd=none / filler=0 / ip_ratio=1.40 / aq=1:0.60
    Default : Yes
    Forced : No

    Audio
    ID : 2
    Format : AAC
    Format/Info : Advanced Audio Codec
    Format profile : LC
    Codec ID : A_AAC
    Duration : 45 min 45 s
    Bit rate : 128 kb/s
    Channel(s) : 2 channels
    Channel positions : Front: L R
    Sampling rate : 44.1 kHz
    Frame rate : 43.066 FPS (1024 SPF)
    Compression mode : Lossy
    Delay relative to video : -83 ms
    Stream size : 41.9 MiB (3%)
    Language : Japanese
    Default : Yes
    Forced : No

    Text
    ID : 3
    Format : ASS
    Codec ID : S_TEXT/ASS
    Codec ID/Info : Advanced Sub Station Alpha
    Duration : 46 min 20 s
    Bit rate : 158 b/s
    Count of elements : 730
    Compression mode : Lossless
    Stream size : 53.8 KiB (0%)
    Default : Yes
    Forced : No







    Status: 1080p [​IMG]

    Geschützter Bereich
    Registriere dich oder logge dich ein, um den Inhalt sehen zu können
     
    Zuletzt bearbeitet: 6. Juli 2019
    Aikanary, goldratte, kutschi und 113 anderen gefällt das.
  3. Tomoya

    Tomoya Kleiner Experte Otaku Experte

    Registriert seit:
    16. Juni 2013
    Beiträge:
    77
    Zustimmungen:
    996
    Folge 25 Online
    ~Der Anime ist Abgeschlossen~