Welcome to our Community
Wanting to join the rest of our members? Feel free to sign up today.
Sign up

The Demon Girl Next Door: Season 2 | Machikado Mazoku 2-Choume [Jap-Dub][Eng-Sub][720p|1080p][Web-DL] - HIDIVE

Azugo

H͓̽u͓̽g͓̽o͓̽ ͓̽&͓̽ ͓̽A͓̽z͓̽u͓̽r͓̽a͓̽
Otaku Gott
Uploader
25 März 2020
3.190
24.377
113
v
The Demon Girl Next Door: Season 2 | Machikado Mazoku 2-Choume



15499.webp



oie_bchbujbgr3vm-png.30595
anisearch.com schrieb:
In The Demon Girl Next Door, der Anime-Adaption zu Izumo Itous gleichnamigem 4-Panel-Manga, verschlägt es uns nach Tama City, eine ruhige kleine Stadt, deren Bewohner in Frieden und Einklang leben. Doch eines Tages soll die idyllische Ruhe ihr Ende finden, als Yuuko Yoshida plötzlich ihre dämonischen Mächte entfesselt und zur Teufelin »Shadow Misstress Yuuko« wird! In typisch teuflischer Manier hat Yuuko nun Hörner sowie einen Schwanz und will den Frieden in Tama City stören. Dazu wurde sie von ihrer Vorfahrin Lilith beauftragt, das örtliche Magical Girl des Lichtclans Momo Chiyoda zu bezwingen. Yuuko verschwendet auch keine Zeit und als sie Momo dank ihrer Klassenkameradin Anri Sada dann auch antrifft, fordert sie sie auch gleich zum Duell heraus … und verliert auf ganzer Linie …

Yuuko ist ohnehin nicht die Stärkste – ganz im Gegenteil –, ist sie doch selbst mit ihren dämonischen Kräften noch schwächer als ein normales Mädchen ihres Alters und seit ihrer vernichtenden Niederlage gegen Momo zweifelt sie nun auch noch an sich selbst und ist sich unsicher, wie sie ihrer Rolle als Teufelin gerecht werden soll. Zu allem Überfluss ist sie auch noch regelmäßig auf Momos Hilfe angewiesen und diese lehnt Yuukos Gesuche natürlich nicht ab. Doch wie es der Zufall will, scheint Momo stetig schwächer zu werden, umso mehr Zeit sie mit Yuuko verbringt …
Quelle: https://www.anisearch.de/anime/14140,​



oie_bchbujbgr3vm1-png.30596


Spieldauer: ~24min
Genre: Komödie
Nebengenres: Alltagsleben, Magical Girl
Sprache:
Japanisch.png
Japanisch
Untertitel:
Englisch.png
Englisch
Größe pro Folge: ~192mb, ~351mb
Episodenanzahl: 10/12
Format: MKV
Auflösung: 720p (16:9), 1080p (16:9)
Videocodec: H264 (AVC)
Audiocodec: AAC
Releasegruppe: Anime Otakus
Hoster:
rapidgator-gif.30742
Rapidgator,
ddownload-gif.30720
ddownload


oie_bchbujbgr3vm2-png.30597

Code:
[color=Turquoise]Format                                   : Matroska
Format version                           : Version 4
File size                                : 192 MiB
Duration                                 : 24 min 57 s
Overall bit rate                         : 1 075 kb/s
Encoded date                             : UTC 2022-04-25 17:48:53
Writing application                      : mkvmerge v67.0.0 ('Under Stars') 64-bit
Writing library                          : libebml v1.4.2 + libmatroska v1.6.4

Video
ID                                       : 1
Format                                   : AVC
Format/Info                              : Advanced Video Codec
Format profile                           : [email protected]
Format settings                          : CABAC / 6 Ref Frames
Format settings, CABAC                   : Yes
Format settings, Reference frames        : 6 frames
Codec ID                                 : V_MPEG4/ISO/AVC
Duration                                 : 24 min 57 s
Bit rate                                 : 915 kb/s
Width                                    : 1 280 pixels
Height                                   : 720 pixels
Display aspect ratio                     : 16:9
Frame rate mode                          : Constant
Frame rate                               : 23.976 (24000/1001) FPS
Color space                              : YUV
Chroma subsampling                       : 4:2:0
Bit depth                                : 8 bits
Scan type                                : Progressive
Bits/(Pixel*Frame)                       : 0.041
Stream size                              : 163 MiB (85%)
Writing library                          : x264 core 148
Encoding settings                        : cabac=1 / ref=6 / deblock=1:0:0 / analyse=0x3:0x113 / me=hex / subme=7 / psy=1 / psy_rd=1.00:0.00 / mixed_ref=1 / me_range=16 / chroma_me=1 / trellis=1 / 8x8dct=1 / cqm=0 / deadzone=21,11 / fast_pskip=1 / chroma_qp_offset=-2 / threads=22 / lookahead_threads=3 / sliced_threads=0 / nr=0 / decimate=1 / interlaced=0 / bluray_compat=0 / constrained_intra=0 / bframes=3 / b_pyramid=2 / b_adapt=1 / b_bias=0 / direct=1 / weightb=1 / open_gop=0 / weightp=2 / keyint=90 / keyint_min=9 / scenecut=0 / intra_refresh=0 / rc_lookahead=40 / rc=crf / mbtree=1 / crf=22.0 / qcomp=0.60 / qpmin=0 / qpmax=69 / qpstep=4 / vbv_maxrate=11100 / vbv_bufsize=111000 / crf_max=0.0 / nal_hrd=none / filler=0 / ip_ratio=1.40 / aq=1:1.00
Default                                  : Yes
Forced                                   : No

Audio
ID                                       : 2
Format                                   : AAC LC
Format/Info                              : Advanced Audio Codec Low Complexity
Codec ID                                 : A_AAC-2
Duration                                 : 24 min 57 s
Bit rate                                 : 157 kb/s
Channel(s)                               : 2 channels
Channel layout                           : L R
Sampling rate                            : 48.0 kHz
Frame rate                               : 46.875 FPS (1024 SPF)
Compression mode                         : Lossy
Delay relative to video                  : -43 ms
Stream size                              : 28.1 MiB (15%)
Default                                  : Yes
Forced                                   : No

Text
ID                                       : 3
Format                                   : ASS
Codec ID                                 : S_TEXT/ASS
Codec ID/Info                            : Advanced Sub Station Alpha
Duration                                 : 23 min 59 s
Bit rate                                 : 208 b/s
Count of elements                        : 787
Compression mode                         : Lossless
Stream size                              : 36.7 KiB (0%)
Default                                  : Yes
Forced                                   : No

[/color]
Code:
[color=Turquoise]Format                                   : Matroska
Format version                           : Version 4
File size                                : 351 MiB
Duration                                 : 24 min 57 s
Overall bit rate                         : 1 967 kb/s
Encoded date                             : UTC 2022-04-25 17:49:01
Writing application                      : mkvmerge v67.0.0 ('Under Stars') 64-bit
Writing library                          : libebml v1.4.2 + libmatroska v1.6.4

Video
ID                                       : 1
Format                                   : AVC
Format/Info                              : Advanced Video Codec
Format profile                           : [email protected]
Format settings                          : CABAC / 4 Ref Frames
Format settings, CABAC                   : Yes
Format settings, Reference frames        : 4 frames
Codec ID                                 : V_MPEG4/ISO/AVC
Duration                                 : 24 min 57 s
Bit rate                                 : 1 806 kb/s
Width                                    : 1 920 pixels
Height                                   : 1 080 pixels
Display aspect ratio                     : 16:9
Frame rate mode                          : Constant
Frame rate                               : 23.976 (24000/1001) FPS
Color space                              : YUV
Chroma subsampling                       : 4:2:0
Bit depth                                : 8 bits
Scan type                                : Progressive
Bits/(Pixel*Frame)                       : 0.036
Stream size                              : 322 MiB (92%)
Writing library                          : x264 core 148
Encoding settings                        : cabac=1 / ref=3 / deblock=1:0:0 / analyse=0x3:0x113 / me=hex / subme=7 / psy=1 / psy_rd=1.00:0.00 / mixed_ref=1 / me_range=16 / chroma_me=1 / trellis=1 / 8x8dct=1 / cqm=0 / deadzone=21,11 / fast_pskip=1 / chroma_qp_offset=-2 / threads=34 / lookahead_threads=5 / sliced_threads=0 / nr=0 / decimate=1 / interlaced=0 / bluray_compat=0 / constrained_intra=0 / bframes=3 / b_pyramid=2 / b_adapt=1 / b_bias=0 / direct=1 / weightb=1 / open_gop=0 / weightp=2 / keyint=90 / keyint_min=9 / scenecut=0 / intra_refresh=0 / rc_lookahead=40 / rc=crf / mbtree=1 / crf=22.0 / qcomp=0.60 / qpmin=0 / qpmax=69 / qpstep=4 / vbv_maxrate=13500 / vbv_bufsize=135000 / crf_max=0.0 / nal_hrd=none / filler=0 / ip_ratio=1.40 / aq=1:1.00
Default                                  : Yes
Forced                                   : No

Audio
ID                                       : 2
Format                                   : AAC LC
Format/Info                              : Advanced Audio Codec Low Complexity
Codec ID                                 : A_AAC-2
Duration                                 : 24 min 57 s
Bit rate                                 : 159 kb/s
Channel(s)                               : 2 channels
Channel layout                           : L R
Sampling rate                            : 48.0 kHz
Frame rate                               : 46.875 FPS (1024 SPF)
Compression mode                         : Lossy
Delay relative to video                  : -43 ms
Stream size                              : 28.5 MiB (8%)
Default                                  : Yes
Forced                                   : No

Text
ID                                       : 3
Format                                   : ASS
Codec ID                                 : S_TEXT/ASS
Codec ID/Info                            : Advanced Sub Station Alpha
Duration                                 : 23 min 59 s
Bit rate                                 : 208 b/s
Count of elements                        : 787
Compression mode                         : Lossless
Stream size                              : 36.7 KiB (0%)
Default                                  : Yes
Forced                                   : No

[/color]



oie_bchbujbgr3vm3-png.30598

cooltext396117611400625-png.30739

025922397B.png

cooltext3961176114006251-png.30741

6C67E5162D.png

To view the content, you need to Sign In or Register.

 
Zuletzt bearbeitet:

Azugo

H͓̽u͓̽g͓̽o͓̽ ͓̽&͓̽ ͓̽A͓̽z͓̽u͓̽r͓̽a͓̽
Otaku Gott
Uploader
25 März 2020
3.190
24.377
113
(っ◔◡◔)っ ♥ Episode 10-12 online. Anime abgeschlossen. Viel Spaß ♥