The Senior Class | Joreopban [Laufend][Ger-Kor-Dub][Ger-Sub][1080p][x265][Web-DL] - Amazon

Azugo

H͓̽u͓̽g͓̽o͓̽ ͓̽&͓̽ ͓̽A͓̽z͓̽u͓̽r͓̽a͓̽
Premium
Otaku Gott
Uploader
Beiträge
3.138
Reaktionspunkte
23.045
Punkte
113


The Senior Class | Joreopban




12488.webp



oie_bchbujbgr3vm-png.30595

anisearch.com schrieb:



oie_bchbujbgr3vm1-png.30596


Spieldauer: ~24min
Genre: Drama
Nebengenres: Erotik
Sprache: Koreanisch, Deutsch
Untertitel: Deutsch
Größe pro Folge: ~1400mb
Episodenanzahl: 01/01
Format: MKV
Auflösung: 720p (16:9), 1080p (16:9)
Videocodec: H265 (HEVC)
Audiocodec: AAC
Releasegruppe: Hugo
Hoster:
rapidgator-gif.30742
Rapidgator,
ddownload-gif.30720
ddownload


oie_bchbujbgr3vm2-png.30597

Code:
[color=Turquoise]Format                                   : Matroska
Format version                           : Version 4
File size                                : 837 MiB
Duration                                 : 1 h 22 min
Overall bit rate                         : 1 418 kb/s
Encoded date                             : UTC 2022-07-05 10:27:34
Writing application                      : mkvmerge v68.0.0 ('The Curtain') 64-bit
Writing library                          : libebml v1.4.2 + libmatroska v1.6.4

Video
ID                                       : 1
Format                                   : HEVC
Format/Info                              : High Efficiency Video Coding
Format profile                           : [email protected]@Main
Codec ID                                 : V_MPEGH/ISO/HEVC
Duration                                 : 1 h 22 min
Bit rate                                 : 1 095 kb/s
Width                                    : 1 920 pixels
Height                                   : 1 080 pixels
Display aspect ratio                     : 16:9
Frame rate mode                          : Constant
Frame rate                               : 23.976 (24000/1001) FPS
Color space                              : YUV
Chroma subsampling                       : 4:2:0
Bit depth                                : 8 bits
Bits/(Pixel*Frame)                       : 0.022
Stream size                              : 646 MiB (77%)
Default                                  : No
Forced                                   : No
Color range                              : Limited

Audio #1
ID                                       : 2
Format                                   : AAC LC
Format/Info                              : Advanced Audio Codec Low Complexity
Codec ID                                 : A_AAC-2
Duration                                 : 1 h 22 min
Bit rate                                 : 128 kb/s
Channel(s)                               : 2 channels
Channel layout                           : L R
Sampling rate                            : 48.0 kHz
Frame rate                               : 46.875 FPS (1024 SPF)
Compression mode                         : Lossy
Stream size                              : 75.5 MiB (9%)
Title                                    : 한국어
Language                                 : Korean
Default                                  : No
Forced                                   : No

Audio #2
ID                                       : 3
Format                                   : AAC LC
Format/Info                              : Advanced Audio Codec Low Complexity
Codec ID                                 : A_AAC-2
Duration                                 : 1 h 22 min
Bit rate                                 : 192 kb/s
Channel(s)                               : 2 channels
Channel layout                           : L R
Sampling rate                            : 48.0 kHz
Frame rate                               : 46.875 FPS (1024 SPF)
Compression mode                         : Lossy
Stream size                              : 113 MiB (14%)
Title                                    : Deutsch
Language                                 : German
Default                                  : Yes
Forced                                   : No

Text
ID                                       : 4
Format                                   : ASS
Codec ID                                 : S_TEXT/ASS
Codec ID/Info                            : Advanced Sub Station Alpha
Duration                                 : 1 h 18 min
Bit rate                                 : 92 b/s
Count of elements                        : 952
Compression mode                         : Lossless
Stream size                              : 53.5 KiB (0%)
Title                                    : Deutsch
Language                                 : German
Default                                  : Yes
Forced                                   : No
[/color]



oie_bchbujbgr3vm3-png.30598

cooltext396117611400625-png.30739

46DB9BA251.png

cooltext3961176114006251-png.30741

D5C46020E4.png

To view the content, you need to Sign In or Register.

 
Zuletzt bearbeitet:
Oben