1. Die erweiterte Suche funktioniert wieder. Die LiveSearch ist vorübergehend deaktiviert

Wir verwenden Cookies, um deinen Aufenthalt auf Animes.so möglichst angenehm gestalten zu können. Mehr erfahren

The Seven Deadly Sins the Movie: Prisoners of the Sky [Ger-Jap-Dub][Ger-Sub][AAC|AC-3|DTS-HD][404p|720p|1080p][BluRay] - Fuuko

Dieses Thema im Forum "Filme (GerSub- /Dub)" wurde erstellt von Fuuko, 9. Sep. 2019.

  1. Fuuko

    Fuuko Erfahrener Otaku Otaku König

    Registriert seit:
    19. Sep. 2018
    Beiträge:
    159
    Zustimmungen:
    5.758
    Gekijouban Nanatsu no Taizai: Tenkuu no Torawarebito
    The Seven Deadly Sins the Movie: Prisoners of the Sky


    [​IMG]

    [​IMG]
    [​IMG]
    Spieldauer: 1 h 39 Min.
    Source: Deutsche Original BluRay
    Release by: Fuuko
    Format: mkv
    Sprache: Deutsch [5.1] | Japanisch [5.1]
    Untertitel: Deutsch (Full)
    Audio: AAC [317 kb/s] | AC-3 [640 kb/s] | DTS-HD [2200 kb/s]
    Auflösung : 720x404 | 1280x720 | 1920x1080
    Größe: 1,4 GB | 3,1 GB | 6,1 GB | 8,4 GB
    Code:
    Complete name               : T.S.D.S.the.Movie-Prisoners.of.the.Sky.German.AAC.DL.BDRiP.x264-Fuuko.mkv
    Format                      : Matroska
    Format version              : Version 4
    File size                   : 1.31 GiB
    Duration                    : 1 h 39 min
    Overall bit rate            : 1 884 kb/s
    Encoded date                : UTC 2019-09-09 14:21:20
    Writing application         : mkvmerge v10.0.0 ('To Drown In You') 64bit
    Writing library             : libebml v1.3.4 + libmatroska v1.4.5
    
    Video
    ID                          : 1
    Format                      : AVC
    Format/Info                 : Advanced Video Codec
    Format profile              : High@L4.1
    Format settings             : CABAC / 4 Ref Frames
    Format settings, CABAC      : Yes
    Format settings, ReFrames   : 4 frames
    Codec ID                    : V_MPEG4/ISO/AVC
    Duration                    : 1 h 39 min
    Bit rate                    : 1 237 kb/s
    Width                       : 720 pixels
    Height                      : 404 pixels
    Display aspect ratio        : 16:9
    Frame rate mode             : Constant
    Frame rate                  : 23.976 (24000/1001) FPS
    Color space                 : YUV
    Chroma subsampling          : 4:2:0
    Bit depth                   : 8 bits
    Scan type                   : Progressive
    Bits/(Pixel*Frame)          : 0.177
    Stream size                 : 878 MiB (66%)
    Writing library             : x264 core 148
    Encoding settings           : cabac=1 / ref=4 / deblock=1:1:1 / analyse=0x3:0 / me=hex / subme=5 / psy=0 / mixed_ref=0 / me_range=16 / chroma_me=1 / trellis=0 / 8x8dct=1 / cqm=0 / deadzone=21,11 / fast_pskip=0 / chroma_qp_offset=0 / threads=8 / lookahead_threads=2 / sliced_threads=0 / nr=0 / decimate=1 / interlaced=0 / bluray_compat=0 / constrained_intra=0 / bframes=2 / b_pyramid=0 / b_adapt=1 / b_bias=0 / direct=1 / weightb=0 / open_gop=0 / weightp=0 / keyint=24 / keyint_min=13 / scenecut=40 / intra_refresh=0 / rc=crf / mbtree=0 / crf=19.0 / qcomp=0.60 / qpmin=0 / qpmax=69 / qpstep=4 / ip_ratio=1.40 / pb_ratio=1.30 / aq=1:1.00
    Default                     : Yes
    Forced                      : No
    Color range                 : Limited
    Color primaries             : BT.601 NTSC
    Transfer characteristics    : BT.709
    Matrix coefficients         : BT.601
    
    Audio #1
    ID                          : 2
    Format                      : AAC LC
    Format/Info                 : Advanced Audio Codec Low Complexity
    Codec ID                    : A_AAC-2
    Duration                    : 1 h 39 min
    Bit rate                    : 317 kb/s
    Channel(s)                  : 6 channels
    Channel layout              : C L R Ls Rs LFE
    Sampling rate               : 48.0 kHz
    Frame rate                  : 46.875 FPS (1024 SPF)
    Compression mode            : Lossy
    Stream size                 : 225 MiB (17%)
    Language                    : German
    Default                     : Yes
    Forced                      : No
    
    Audio #2
    ID                          : 3
    Format                      : AAC LC
    Format/Info                 : Advanced Audio Codec Low Complexity
    Codec ID                    : A_AAC-2
    Duration                    : 1 h 39 min
    Bit rate                    : 317 kb/s
    Channel(s)                  : 6 channels
    Channel layout              : C L R Ls Rs LFE
    Sampling rate               : 48.0 kHz
    Frame rate                  : 46.875 FPS (1024 SPF)
    Compression mode            : Lossy
    Stream size                 : 225 MiB (17%)
    Language                    : Japanese
    Default                     : No
    Forced                      : No
    
    Text
    ID                          : 4
    Format                      : PGS
    Muxing mode                 : zlib
    Codec ID                    : S_HDMV/PGS
    Codec ID/Info               : Picture based subtitle format used on BDs/HD-DVDs
    Duration                    : 1 h 38 min
    Bit rate                    : 9 456 b/s
    Count of elements           : 2808
    Stream size                 : 6.68 MiB (0%)
    Language                    : German
    Default                     : No
    Forced                      : No
    
    Menu
    00:00:00.000                : en:(01)00:00:00:000
    00:06:41.734                : en:(02)00:06:41:734
    00:14:06.554                : en:(03)00:14:06:554
    00:24:13.285                : en:(04)00:24:13:285
    00:30:37.126                : en:(05)00:30:37:126
    00:37:55.773                : en:(06)00:37:55:773
    00:45:08.664                : en:(07)00:45:08:664
    00:55:41.713                : en:(08)00:55:41:713
    01:10:08.245                : en:(09)01:10:08:245
    01:15:22.851                : en:(10)01:15:22:851
    01:21:00.897                : en:(11)01:21:00:897
    01:31:54.842                : en:(12)01:31:54:842
    01:39:14.907                : en:(13)01:39:14:907
    Code:
    Complete name               : T.S.D.S.the.Movie-Prisoners.of.the.Sky.German.AC3.DL.720p.BluRay.x264-Fuuko.mkv
    Format                      : Matroska
    Format version              : Version 4
    File size                   : 2.98 GiB
    Duration                    : 1 h 39 min
    Overall bit rate            : 4 294 kb/s
    Encoded date                : UTC 2019-09-09 14:20:02
    Writing application         : mkvmerge v10.0.0 ('To Drown In You') 64bit
    Writing library             : libebml v1.3.4 + libmatroska v1.4.5
    
    Video
    ID                          : 1
    Format                      : AVC
    Format/Info                 : Advanced Video Codec
    Format profile              : High@L4.1
    Format settings             : CABAC / 4 Ref Frames
    Format settings, CABAC      : Yes
    Format settings, ReFrames   : 4 frames
    Codec ID                    : V_MPEG4/ISO/AVC
    Duration                    : 1 h 39 min
    Bit rate                    : 2 993 kb/s
    Width                       : 1 280 pixels
    Height                      : 720 pixels
    Display aspect ratio        : 16:9
    Frame rate mode             : Constant
    Frame rate                  : 23.976 (24000/1001) FPS
    Color space                 : YUV
    Chroma subsampling          : 4:2:0
    Bit depth                   : 8 bits
    Scan type                   : Progressive
    Bits/(Pixel*Frame)          : 0.135
    Stream size                 : 2.07 GiB (70%)
    Writing library             : x264 core 148
    Encoding settings           : cabac=1 / ref=4 / deblock=1:1:1 / analyse=0x3:0 / me=hex / subme=5 / psy=0 / mixed_ref=0 / me_range=16 / chroma_me=1 / trellis=0 / 8x8dct=1 / cqm=0 / deadzone=21,11 / fast_pskip=0 / chroma_qp_offset=0 / threads=8 / lookahead_threads=2 / sliced_threads=0 / nr=0 / decimate=1 / interlaced=0 / bluray_compat=0 / constrained_intra=0 / bframes=2 / b_pyramid=0 / b_adapt=1 / b_bias=0 / direct=1 / weightb=0 / open_gop=0 / weightp=0 / keyint=24 / keyint_min=13 / scenecut=40 / intra_refresh=0 / rc=crf / mbtree=0 / crf=19.0 / qcomp=0.60 / qpmin=0 / qpmax=69 / qpstep=4 / ip_ratio=1.40 / pb_ratio=1.30 / aq=1:1.00
    Default                     : Yes
    Forced                      : No
    Color range                 : Limited
    Color primaries             : BT.709
    Transfer characteristics    : BT.709
    Matrix coefficients         : BT.709
    
    Audio #1
    ID                          : 2
    Format                      : AC-3
    Format/Info                 : Audio Coding 3
    Commercial name             : Dolby Digital
    Codec ID                    : A_AC3
    Duration                    : 1 h 39 min
    Bit rate mode               : Constant
    Bit rate                    : 640 kb/s
    Channel(s)                  : 6 channels
    Channel layout              : L R C LFE Ls Rs
    Sampling rate               : 48.0 kHz
    Frame rate                  : 31.250 FPS (1536 SPF)
    Bit depth                   : 16 bits
    Compression mode            : Lossy
    Stream size                 : 454 MiB (15%)
    Language                    : German
    Service kind                : Complete Main
    Default                     : Yes
    Forced                      : No
    
    Audio #2
    ID                          : 3
    Format                      : AC-3
    Format/Info                 : Audio Coding 3
    Commercial name             : Dolby Digital
    Codec ID                    : A_AC3
    Duration                    : 1 h 39 min
    Bit rate mode               : Constant
    Bit rate                    : 640 kb/s
    Channel(s)                  : 6 channels
    Channel layout              : L R C LFE Ls Rs
    Sampling rate               : 48.0 kHz
    Frame rate                  : 31.250 FPS (1536 SPF)
    Bit depth                   : 16 bits
    Compression mode            : Lossy
    Stream size                 : 454 MiB (15%)
    Language                    : Japanese
    Service kind                : Complete Main
    Default                     : No
    Forced                      : No
    
    Text
    ID                          : 4
    Format                      : PGS
    Muxing mode                 : zlib
    Codec ID                    : S_HDMV/PGS
    Codec ID/Info               : Picture based subtitle format used on BDs/HD-DVDs
    Duration                    : 1 h 38 min
    Bit rate                    : 19.2 kb/s
    Count of elements           : 2808
    Stream size                 : 13.5 MiB (0%)
    Language                    : German
    Default                     : No
    Forced                      : No
    
    Menu
    00:00:00.000                : en:(01)00:00:00:000
    00:06:41.734                : en:(02)00:06:41:734
    00:14:06.554                : en:(03)00:14:06:554
    00:24:13.285                : en:(04)00:24:13:285
    00:30:37.126                : en:(05)00:30:37:126
    00:37:55.773                : en:(06)00:37:55:773
    00:45:08.664                : en:(07)00:45:08:664
    00:55:41.713                : en:(08)00:55:41:713
    01:10:08.245                : en:(09)01:10:08:245
    01:15:22.851                : en:(10)01:15:22:851
    01:21:00.897                : en:(11)01:21:00:897
    01:31:54.842                : en:(12)01:31:54:842
    01:39:14.907                : en:(13)01:39:14:907
    Code:
    Complete name               : T.S.D.S.the.Movie-Prisoners.of.the.Sky.German.AC3.DL.1080p.BluRay.x264-Fuuko.mkv
    Format                      : Matroska
    Format version              : Version 4
    File size                   : 5.78 GiB
    Duration                    : 1 h 39 min
    Overall bit rate            : 8 334 kb/s
    Encoded date                : UTC 2019-09-09 14:17:07
    Writing application         : mkvmerge v10.0.0 ('To Drown In You') 64bit
    Writing library             : libebml v1.3.4 + libmatroska v1.4.5
    
    Video
    ID                          : 1
    Format                      : AVC
    Format/Info                 : Advanced Video Codec
    Format profile              : High@L4.1
    Format settings             : CABAC / 4 Ref Frames
    Format settings, CABAC      : Yes
    Format settings, ReFrames   : 4 frames
    Codec ID                    : V_MPEG4/ISO/AVC
    Duration                    : 1 h 39 min
    Bit rate                    : 7 037 kb/s
    Width                       : 1 920 pixels
    Height                      : 1 080 pixels
    Display aspect ratio        : 16:9
    Frame rate mode             : Constant
    Frame rate                  : 23.976 (24000/1001) FPS
    Color space                 : YUV
    Chroma subsampling          : 4:2:0
    Bit depth                   : 8 bits
    Scan type                   : Progressive
    Bits/(Pixel*Frame)          : 0.142
    Stream size                 : 4.88 GiB (84%)
    Writing library             : x264 core 148
    Encoding settings           : cabac=1 / ref=4 / deblock=1:1:1 / analyse=0x3:0 / me=hex / subme=5 / psy=0 / mixed_ref=0 / me_range=16 / chroma_me=1 / trellis=0 / 8x8dct=1 / cqm=0 / deadzone=21,11 / fast_pskip=0 / chroma_qp_offset=0 / threads=8 / lookahead_threads=2 / sliced_threads=0 / nr=0 / decimate=1 / interlaced=0 / bluray_compat=0 / constrained_intra=0 / bframes=2 / b_pyramid=0 / b_adapt=1 / b_bias=0 / direct=1 / weightb=0 / open_gop=0 / weightp=0 / keyint=24 / keyint_min=13 / scenecut=40 / intra_refresh=0 / rc=crf / mbtree=0 / crf=19.0 / qcomp=0.60 / qpmin=0 / qpmax=69 / qpstep=4 / ip_ratio=1.40 / pb_ratio=1.30 / aq=1:1.00
    Default                     : Yes
    Forced                      : No
    Color range                 : Limited
    Color primaries             : BT.709
    Transfer characteristics    : BT.709
    Matrix coefficients         : BT.709
    
    Audio #1
    ID                          : 2
    Format                      : AC-3
    Format/Info                 : Audio Coding 3
    Commercial name             : Dolby Digital
    Codec ID                    : A_AC3
    Duration                    : 1 h 39 min
    Bit rate mode               : Constant
    Bit rate                    : 640 kb/s
    Channel(s)                  : 6 channels
    Channel layout              : L R C LFE Ls Rs
    Sampling rate               : 48.0 kHz
    Frame rate                  : 31.250 FPS (1536 SPF)
    Bit depth                   : 16 bits
    Compression mode            : Lossy
    Stream size                 : 454 MiB (8%)
    Language                    : German
    Service kind                : Complete Main
    Default                     : Yes
    Forced                      : No
    
    Audio #2
    ID                          : 3
    Format                      : AC-3
    Format/Info                 : Audio Coding 3
    Commercial name             : Dolby Digital
    Codec ID                    : A_AC3
    Duration                    : 1 h 39 min
    Bit rate mode               : Constant
    Bit rate                    : 640 kb/s
    Channel(s)                  : 6 channels
    Channel layout              : L R C LFE Ls Rs
    Sampling rate               : 48.0 kHz
    Frame rate                  : 31.250 FPS (1536 SPF)
    Bit depth                   : 16 bits
    Compression mode            : Lossy
    Stream size                 : 454 MiB (8%)
    Language                    : Japanese
    Service kind                : Complete Main
    Default                     : No
    Forced                      : No
    
    Text
    ID                          : 4
    Format                      : PGS
    Muxing mode                 : zlib
    Codec ID                    : S_HDMV/PGS
    Codec ID/Info               : Picture based subtitle format used on BDs/HD-DVDs
    Duration                    : 1 h 38 min
    Bit rate                    : 14.4 kb/s
    Count of elements           : 2808
    Stream size                 : 10.2 MiB (0%)
    Language                    : German
    Default                     : No
    Forced                      : No
    
    Menu
    00:00:00.000                : en:(01)00:00:00:000
    00:06:41.734                : en:(02)00:06:41:734
    00:14:06.554                : en:(03)00:14:06:554
    00:24:13.285                : en:(04)00:24:13:285
    00:30:37.126                : en:(05)00:30:37:126
    00:37:55.773                : en:(06)00:37:55:773
    00:45:08.664                : en:(07)00:45:08:664
    00:55:41.713                : en:(08)00:55:41:713
    01:10:08.245                : en:(09)01:10:08:245
    01:15:22.851                : en:(10)01:15:22:851
    01:21:00.897                : en:(11)01:21:00:897
    01:31:54.842                : en:(12)01:31:54:842
    01:39:14.907                : en:(13)01:39:14:907
    Code:
    Complete name               : T.S.D.S.the.Movie-Prisoners.of.the.Sky.German.DTS.DL.1080p.BluRay.x264-Fuuko.mkv
    Format                      : Matroska
    Format version              : Version 4
    File size                   : 7.99 GiB
    Duration                    : 1 h 39 min
    Overall bit rate mode       : Variable
    Overall bit rate            : 11.5 Mb/s
    Encoded date                : UTC 2019-09-09 14:13:38
    Writing application         : mkvmerge v10.0.0 ('To Drown In You') 64bit
    Writing library             : libebml v1.3.4 + libmatroska v1.4.5
    
    Video
    ID                          : 1
    Format                      : AVC
    Format/Info                 : Advanced Video Codec
    Format profile              : High@L4.1
    Format settings             : CABAC / 4 Ref Frames
    Format settings, CABAC      : Yes
    Format settings, ReFrames   : 4 frames
    Codec ID                    : V_MPEG4/ISO/AVC
    Duration                    : 1 h 39 min
    Bit rate                    : 7 037 kb/s
    Width                       : 1 920 pixels
    Height                      : 1 080 pixels
    Display aspect ratio        : 16:9
    Frame rate mode             : Constant
    Frame rate                  : 23.976 (24000/1001) FPS
    Color space                 : YUV
    Chroma subsampling          : 4:2:0
    Bit depth                   : 8 bits
    Scan type                   : Progressive
    Bits/(Pixel*Frame)          : 0.142
    Stream size                 : 4.88 GiB (61%)
    Writing library             : x264 core 148
    Encoding settings           : cabac=1 / ref=4 / deblock=1:1:1 / analyse=0x3:0 / me=hex / subme=5 / psy=0 / mixed_ref=0 / me_range=16 / chroma_me=1 / trellis=0 / 8x8dct=1 / cqm=0 / deadzone=21,11 / fast_pskip=0 / chroma_qp_offset=0 / threads=8 / lookahead_threads=2 / sliced_threads=0 / nr=0 / decimate=1 / interlaced=0 / bluray_compat=0 / constrained_intra=0 / bframes=2 / b_pyramid=0 / b_adapt=1 / b_bias=0 / direct=1 / weightb=0 / open_gop=0 / weightp=0 / keyint=24 / keyint_min=13 / scenecut=40 / intra_refresh=0 / rc=crf / mbtree=0 / crf=19.0 / qcomp=0.60 / qpmin=0 / qpmax=69 / qpstep=4 / ip_ratio=1.40 / pb_ratio=1.30 / aq=1:1.00
    Default                     : Yes
    Forced                      : No
    Color range                 : Limited
    Color primaries             : BT.709
    Transfer characteristics    : BT.709
    Matrix coefficients         : BT.709
    
    Audio #1
    ID                          : 2
    Format                      : DTS XLL
    Format/Info                 : Digital Theater Systems
    Commercial name             : DTS-HD Master Audio
    Codec ID                    : A_DTS
    Duration                    : 1 h 39 min
    Bit rate mode               : Variable
    Bit rate                    : 2 211 kb/s
    Channel(s)                  : 6 channels
    Channel layout              : C L R Ls Rs LFE
    Sampling rate               : 48.0 kHz
    Frame rate                  : 93.750 FPS (512 SPF)
    Bit depth                   : 16 bits
    Compression mode            : Lossless
    Stream size                 : 1.53 GiB (19%)
    Language                    : German
    Default                     : Yes
    Forced                      : No
    
    Audio #2
    ID                          : 3
    Format                      : DTS XLL
    Format/Info                 : Digital Theater Systems
    Commercial name             : DTS-HD Master Audio
    Codec ID                    : A_DTS
    Duration                    : 1 h 39 min
    Bit rate mode               : Variable
    Bit rate                    : 2 258 kb/s
    Channel(s)                  : 6 channels
    Channel layout              : C L R Ls Rs LFE
    Sampling rate               : 48.0 kHz
    Frame rate                  : 93.750 FPS (512 SPF)
    Bit depth                   : 16 bits
    Compression mode            : Lossless
    Stream size                 : 1.57 GiB (20%)
    Language                    : Japanese
    Default                     : No
    Forced                      : No
    
    Text
    ID                          : 4
    Format                      : PGS
    Muxing mode                 : zlib
    Codec ID                    : S_HDMV/PGS
    Codec ID/Info               : Picture based subtitle format used on BDs/HD-DVDs
    Duration                    : 1 h 38 min
    Bit rate                    : 14.4 kb/s
    Count of elements           : 2808
    Stream size                 : 10.2 MiB (0%)
    Language                    : German
    Default                     : No
    Forced                      : No
    
    Menu
    00:00:00.000                : en:(01)00:00:00:000
    00:06:41.734                : en:(02)00:06:41:734
    00:14:06.554                : en:(03)00:14:06:554
    00:24:13.285                : en:(04)00:24:13:285
    00:30:37.126                : en:(05)00:30:37:126
    00:37:55.773                : en:(06)00:37:55:773
    00:45:08.664                : en:(07)00:45:08:664
    00:55:41.713                : en:(08)00:55:41:713
    01:10:08.245                : en:(09)01:10:08:245
    01:15:22.851                : en:(10)01:15:22:851
    01:21:00.897                : en:(11)01:21:00:897
    01:31:54.842                : en:(12)01:31:54:842
    01:39:14.907                : en:(13)01:39:14:907
    [​IMG]
    404p - AAC [​IMG]
    720p - AC-3 [​IMG]
    1080p - AC-3 [​IMG]
    1080p - DTS-HD [​IMG]
    Geschützter Bereich
    Registriere dich oder logge dich ein, um den Inhalt sehen zu können
     
  2. Uploading123

    Uploading123 High Quality Anime Nolife

    Registriert seit:
    7. März 2013
    Beiträge:
    759
    Zustimmungen:
    18.196

    The Seven Deadly Sins the Movie-Prisoners of the Sky

    [​IMG]

    .:Beschreibung:.
    Vor langer Zeit wurde das Königreich Britannia von einer Untergruppe des Ordens der Heiligen Ritter in Aufruhr versetzt. Die sogenannten „Seven Deadly Sins" wurden mit dem grausamen Tod des Generals der Heiligen Ritter in Verbindung gebracht und in der Folge erbarmungslos gejagt. Viele Bewohner des Königreichs glauben, dass die berüchtigten „Seven Deadly Sins" damals restlos vernichtet worden sind. Doch manche munkeln, dass die Gruppe sich im Untergrund versteckt hält...

    .:Info:.
    Größe: 8182 MB
    Laufzeit: 99 Min.
    Format: .mkv
    Video Stream: BD
    Video Codec: MPEG-4 H.264 / AVC
    Audio Stream: DTS-HD MA 5.1
    Sprache/n: GER, JPN
    Untertitel: GER
    Releaser: Fuuko
    IMDb: 7.2
    Hoster: SO, RG

    .:NFO:.
    Code:
    Format                                   : Matroska
    Format-Version                           : Version 4 / Version 2
    Dateigröße                               : 7,99 GiB
    Dauer                                    : 1 h 39 min
    Gesamte Bitrate                          : 11,5 Mb/s
    Kodierungs-Datum                         : UTC 2019-09-09 14:13:38
    Kodierendes Programm                     : mkvmerge v10.0.0 ('To Drown In You') 64bit
    verwendete Encoder-Bibliothek            : libebml v1.3.4 + libmatroska v1.4.5
    
    Video
    ID                                       : 1
    Format                                   : AVC
    Format/Info                              : Advanced Video Codec
    Format-Profil                            : High@L4.1
    Format-Einstellungen                     : CABAC / 4 Ref Frames
    Format-Einstellungen für CABAC           : Ja
    Format-Einstellungen für RefFrames       : 4 frames
    Codec-ID                                 : V_MPEG4/ISO/AVC
    Dauer                                    : 1 h 39 min
    Bitrate                                  : 7 037 kb/s
    Breite                                   : 1 920 Pixel
    Höhe                                     : 1 080 Pixel
    Bildseitenverhältnis                     : 16:9
    Modus der Bildwiederholungsrate          : konstant
    Bildwiederholungsrate                    : 23,976 (24000/1001) FPS
    ColorSpace                               : YUV
    ChromaSubsampling/String                 : 4:2:0
    BitDepth/String                          : 8 bits
    Scantyp                                  : progressiv
    Bits/(Pixel*Frame)                       : 0.142
    Stream-Größe                             : 4,88 GiB (61%)
    verwendete Encoder-Bibliothek            : x264 core 148
    Kodierungseinstellungen                  : cabac=1 / ref=4 / deblock=1:1:1 / analyse=0x3:0 / me=hex / subme=5 / psy=0 / mixed_ref=0 / me_range=16 / chroma_me=1 / trellis=0 / 8x8dct=1 / cqm=0 / deadzone=21,11 / fast_pskip=0 / chroma_qp_offset=0 / threads=8 / lookahead_threads=2 / sliced_threads=0 / nr=0 / decimate=1 / interlaced=0 / bluray_compat=0 / constrained_intra=0 / bframes=2 / b_pyramid=0 / b_adapt=1 / b_bias=0 / direct=1 / weightb=0 / open_gop=0 / weightp=0 / keyint=24 / keyint_min=13 / scenecut=40 / intra_refresh=0 / rc=crf / mbtree=0 / crf=19.0 / qcomp=0.60 / qpmin=0 / qpmax=69 / qpstep=4 / ip_ratio=1.40 / pb_ratio=1.30 / aq=1:1.00
    Default                                  : Ja
    Forced                                   : Nein
    colour_range                             : Limited
    colour_primaries                         : BT.709
    transfer_characteristics                 : BT.709
    matrix_coefficients                      : BT.709
    
    Audio #1
    ID                                       : 2
    Format                                   : DTS
    Format/Info                              : Digital Theater Systems
    Format-Profil                            : MA / Core
    Codec-ID                                 : A_DTS
    Dauer                                    : 1 h 39 min
    Bitraten-Modus                           : variabel / konstant
    Bitrate                                  : 2 211 kb/s / 1 509 kb/s
    Kanäle                                   : 6 Kanäle
    Kanal-Positionen                         : Front: L C R, Side: L R, LFE
    Samplingrate                             : 48,0 kHz
    Bildwiederholungsrate                    : 93,750 FPS (512 SPF)
    BitDepth/String                          : 16 bits
    Compression_Mode/String                  :  / Lossy
    Stream-Größe                             : 1,53 GiB (19%)
    Sprache                                  : Deutsch
    Default                                  : Ja
    Forced                                   : Nein
    
    Audio #2
    ID                                       : 3
    Format                                   : DTS
    Format/Info                              : Digital Theater Systems
    Format-Profil                            : MA / Core
    Codec-ID                                 : A_DTS
    Dauer                                    : 1 h 39 min
    Bitraten-Modus                           : variabel / konstant
    Bitrate                                  : 2 258 kb/s / 1 509 kb/s
    Kanäle                                   : 6 Kanäle
    Kanal-Positionen                         : Front: L C R, Side: L R, LFE
    Samplingrate                             : 48,0 kHz
    Bildwiederholungsrate                    : 93,750 FPS (512 SPF)
    BitDepth/String                          : 16 bits
    Compression_Mode/String                  :  / Lossy
    Stream-Größe                             : 1,57 GiB (20%)
    Sprache                                  : Japanisch
    Default                                  : Nein
    Forced                                   : Nein
    
    Text
    ID                                       : 4
    Format                                   : PGS
    Muxing-Modus                             : zlib
    Codec-ID                                 : S_HDMV/PGS
    Codec-ID/Info                            : Picture based subtitle format used on BDs/HD-DVDs
    Dauer                                    : 1 h 38 min
    Bitrate                                  : 14,4 kb/s
    ElementCount                             : 2808
    Stream-Größe                             : 10,2 MiB (0%)
    Sprache                                  : Deutsch
    Default                                  : Nein
    Forced                                   : Nein
    
    Menü
    00:00:00.000                             : en:(01)00:00:00:000
    00:06:41.734                             : en:(02)00:06:41:734
    00:14:06.554                             : en:(03)00:14:06:554
    00:24:13.285                             : en:(04)00:24:13:285
    00:30:37.126                             : en:(05)00:30:37:126
    00:37:55.773                             : en:(06)00:37:55:773
    00:45:08.664                             : en:(07)00:45:08:664
    00:55:41.713                             : en:(08)00:55:41:713
    01:10:08.245                             : en:(09)01:10:08:245
    01:15:22.851                             : en:(10)01:15:22:851
    01:21:00.897                             : en:(11)01:21:00:897
    01:31:54.842                             : en:(12)01:31:54:842
    01:39:14.907                             : en:(13)01:39:14:907
    
    


    Mirrors kompatibel

    .:Share-online.biz:. [​IMG]
    Geschützter Bereich
    Registriere dich oder logge dich ein, um den Inhalt sehen zu können
    .:Rapidgator.net:. [​IMG]
    Geschützter Bereich
    Registriere dich oder logge dich ein, um den Inhalt sehen zu können
     
    thanner und Stabilo gefällt das.