Wir verwenden Cookies, um deinen Aufenthalt auf Animes.so möglichst angenehm gestalten zu können. Mehr erfahren

To Love-Ru: Trouble - Darkness | To Love Ru: Darkness [Ger-Jap-Dub][Ger-Sub][MP3|AC-3|DTS-HD][408p|720p|1080p][BluRay] - AST4u

Dieses Thema im Forum "Serien (GerDub)" wurde erstellt von ClipperSunny, 28. Feb. 2018.

  1. ClipperSunny

    ClipperSunny 100% Anime Otaku König

    Registriert seit:
    27. Jan. 2018
    Beiträge:
    301
    Zustimmungen:
    6.121
    To Love-Ru: Trouble - Darkness
    To Love Ru Darkness
    To Love Ru: Darkness


    [​IMG]


    Beschreibung:
    Seit Ritos unfreiwilligem Liebesgeständnis an die Mehrzahl seiner weiblichen Bekannten ist noch gar nicht viel Zeit vergangen, schon ziehen neue Wolken am Horizont seines einstmals unbeschwerlichen Single-Daseins auf. Momo, die jüngste Schwester seiner selbsternannten Verlobten, der außerirdischen Prinzessin Lala, plant einen Harem um Rito zu errichten und scheut dabei weder Intrigen noch körperliche Nähe. Währenddessen taucht in der Gestalt von Mea Kurosaki eine undurchsichtige Fremde auf, die versucht, die ehemalige Killerin Golden Darkness aus ihrem irdischen Freundeskreis zu reißen und wieder auf den Pfad der Dunkelheit zu führen. Der Wettlauf der beiden Mädchen um ihr ultimatives Ziel nimmt seinen Lauf und Rito gerät zwischen die spärlich bekleideten Fronten...

    Infos:
    Genre: Romantische Komödie, Ecchi, Harem, Komödie, Romanze, Scifi
    Episoden: 12/12
    Spieldauer: 24 Min.
    Source: Blu-Ray
    Format: AVI | MKV
    Video-Codec: Xvid | x264
    Sprache: Japanisch, Deutsch
    Untertitel: Deutsch
    Publisher: FilmConfect
    Gruppe: AST4u
    Auflösung: 408p / 720p / 1080p
    Audio-Codec: MP3 / AC3 / DTS
    Größe: 290 MB / 600 MB / 1.4 GB / 1.9 GB
    Jahr: 2012
    Hoster: Share-Online.biz

    Code:
    
    General
    Complete name                  : To.Love.Ru.Darkness.Ep.01.German.MP3.DL.BluRay.xvid-AST4u.avi
    Format                         : Matroska
    Format version                 : Version 4 / Version 2
    File size                      : 290 MiB
    Duration                       : 23 min 47 s
    Overall bit rate               : 1 703 kb/s
    Encoded date                   : UTC 2018-02-27 22:03:55
    Writing application            : mkvmerge v8.8.0 ('Wind at my back') 64bit
    Writing library                : libebml v1.3.3 + libmatroska v1.4.4
    FileExtension_Invalid          : mkv mk3d mka mks
    
    Video
    ID                             : 1
    Format                         : MPEG-4 Visual
    Format profile                 : Advanced Simple@L5
    Format settings                : BVOP2
    Format settings, BVOP          : 2
    Format settings, QPel          : No
    Format settings, GMC           : No warppoints
    Format settings, Matrix        : Default (MPEG)
    Codec ID                       : V_MS/VFW/FOURCC / XVID
    Codec ID/Hint                  : XviD
    Duration                       : 23 min 46 s
    Bit rate                       : 1 300 kb/s
    Width                          : 720 pixels
    Height                         : 408 pixels
    Display aspect ratio           : 16:9
    Frame rate mode                : Constant
    Frame rate                     : 23.976 (24000/1001) FPS
    Color space                    : YUV
    Chroma subsampling             : 4:2:0
    Bit depth                      : 8 bits
    Scan type                      : Progressive
    Compression mode               : Lossy
    Bits/(Pixel*Frame)             : 0.185
    Stream size                    : 221 MiB (76%)
    Writing library                : XviD 67
    Default                        : Yes
    Forced                         : No
    
    Audio #1
    ID                             : 2
    Format                         : MPEG Audio
    Format version                 : Version 1
    Format profile                 : Layer 3
    Format settings                : Joint stereo / MS Stereo
    Codec ID                       : A_MPEG/L3
    Codec ID/Hint                  : MP3
    Duration                       : 23 min 42 s
    Bit rate mode                  : Constant
    Bit rate                       : 192 kb/s
    Channel(s)                     : 2 channels
    Sampling rate                  : 48.0 kHz
    Frame rate                     : 41.667 FPS (1152 SPF)
    Compression mode               : Lossy
    Stream size                    : 32.5 MiB (11%)
    Writing library                : LAME3.99r
    Encoding settings              : -m j -V 4 -q 2 -lowpass 18.6 -b 192
    Language                       : German
    Default                        : Yes
    Forced                         : No
    
    Audio #2
    ID                             : 3
    Format                         : MPEG Audio
    Format version                 : Version 1
    Format profile                 : Layer 3
    Format settings                : Joint stereo / MS Stereo
    Codec ID                       : A_MPEG/L3
    Codec ID/Hint                  : MP3
    Duration                       : 23 min 47 s
    Bit rate mode                  : Constant
    Bit rate                       : 192 kb/s
    Channel(s)                     : 2 channels
    Sampling rate                  : 48.0 kHz
    Frame rate                     : 41.667 FPS (1152 SPF)
    Compression mode               : Lossy
    Stream size                    : 32.7 MiB (11%)
    Writing library                : LAME3.99r
    Encoding settings              : -m j -V 4 -q 2 -lowpass 18.6 -b 192
    Language                       : Japanese
    Default                        : No
    Forced                         : No
    
    Text
    ID                             : 4
    Format                         : PGS
    Muxing mode                    : zlib
    Codec ID                       : S_HDMV/PGS
    Codec ID/Info                  : Picture based subtitle format used on BDs/HD-DVDs
    Duration                       : 21 min 54 s
    Bit rate                       : 19.3 kb/s
    Count of elements              : 538
    Stream size                    : 3.03 MiB (1%)
    Default                        : Yes
    Forced                         : No
    
    
    Code:
    
    General
    Complete name                  : To.Love.Ru.Darkness.Ep.01.German.AC3.DL.720p.BluRay.x264-AST4u.mkv
    Format                         : Matroska
    Format version                 : Version 4 / Version 2
    File size                      : 597 MiB
    Duration                       : 23 min 47 s
    Overall bit rate               : 3 509 kb/s
    Encoded date                   : UTC 2018-02-27 23:03:39
    Writing application            : mkvmerge v8.8.0 ('Wind at my back') 64bit
    Writing library                : libebml v1.3.3 + libmatroska v1.4.4
    
    Video
    ID                             : 1
    Format                         : AVC
    Format/Info                    : Advanced Video Codec
    Format profile                 : High@L4.1
    Format settings                : CABAC / 6 Ref Frames
    Format settings, CABAC         : Yes
    Format settings, ReFrames      : 6 frames
    Codec ID                       : V_MPEG4/ISO/AVC
    Duration                       : 23 min 46 s
    Bit rate                       : 2 595 kb/s
    Width                          : 1 280 pixels
    Height                         : 720 pixels
    Display aspect ratio           : 16:9
    Frame rate mode                : Constant
    Frame rate                     : 23.976 (24000/1001) FPS
    Color space                    : YUV
    Chroma subsampling             : 4:2:0
    Bit depth                      : 8 bits
    Scan type                      : Progressive
    Bits/(Pixel*Frame)             : 0.117
    Stream size                    : 441 MiB (74%)
    Writing library                : x264 core 148 r2638 7599210
    Encoding settings              : cabac=1 / ref=6 / deblock=1:1:1 / analyse=0x3:0x113 / me=hex / subme=9 / psy=1 / psy_rd=0.40:0.00 / mixed_ref=1 / me_range=16 / chroma_me=1 / trellis=1 / 8x8dct=1 / cqm=0 / deadzone=21,11 / fast_pskip=1 / chroma_qp_offset=-2 / threads=12 / lookahead_threads=1 / sliced_threads=0 / nr=0 / decimate=1 / interlaced=0 / bluray_compat=0 / constrained_intra=0 / bframes=5 / b_pyramid=2 / b_adapt=1 / b_bias=0 / direct=1 / weightb=1 / open_gop=0 / weightp=2 / keyint=240 / keyint_min=23 / scenecut=40 / intra_refresh=0 / rc_lookahead=40 / rc=crf / mbtree=1 / crf=16.0 / qcomp=0.60 / qpmin=0 / qpmax=69 / qpstep=4 / vbv_maxrate=62500 / vbv_bufsize=78125 / crf_max=0.0 / nal_hrd=none / filler=0 / ip_ratio=1.40 / aq=1:0.60
    Default                        : Yes
    Forced                         : No
    
    Audio #1
    ID                             : 2
    Format                         : AC-3
    Format/Info                    : Audio Coding 3
    Codec ID                       : A_AC3
    Duration                       : 23 min 42 s
    Bit rate mode                  : Constant
    Bit rate                       : 448 kb/s
    Channel(s)                     : 6 channels
    Channel positions              : Front: L C R, Side: L R, LFE
    Sampling rate                  : 48.0 kHz
    Frame rate                     : 31.250 FPS (1536 SPF)
    Bit depth                      : 16 bits
    Compression mode               : Lossy
    Stream size                    : 75.9 MiB (13%)
    Language                       : German
    Service kind                   : Complete Main
    Default                        : Yes
    Forced                         : No
    
    Audio #2
    ID                             : 3
    Format                         : AC-3
    Format/Info                    : Audio Coding 3
    Codec ID                       : A_AC3
    Duration                       : 23 min 47 s
    Bit rate mode                  : Constant
    Bit rate                       : 448 kb/s
    Channel(s)                     : 2 channels
    Channel positions              : Front: L R
    Sampling rate                  : 48.0 kHz
    Frame rate                     : 31.250 FPS (1536 SPF)
    Bit depth                      : 16 bits
    Compression mode               : Lossy
    Stream size                    : 76.2 MiB (13%)
    Language                       : Japanese
    Service kind                   : Complete Main
    Default                        : No
    Forced                         : No
    
    Text
    ID                             : 4
    Format                         : PGS
    Muxing mode                    : zlib
    Codec ID                       : S_HDMV/PGS
    Codec ID/Info                  : Picture based subtitle format used on BDs/HD-DVDs
    Duration                       : 21 min 54 s
    Bit rate                       : 19.3 kb/s
    Count of elements              : 538
    Stream size                    : 3.03 MiB (1%)
    Default                        : Yes
    Forced                         : No
    
    

    Code:
    
    General
    Complete name                  : To.Love.Ru.Darkness.Ep.01.German.AC3.DL.1080p.BluRay.x264-AST4u.mkv
    Format                         : Matroska
    Format version                 : Version 4 / Version 2
    File size                      : 1.40 GiB
    Duration                       : 23 min 47 s
    Overall bit rate               : 8 402 kb/s
    Encoded date                   : UTC 2018-02-27 23:08:47
    Writing application            : mkvmerge v8.8.0 ('Wind at my back') 64bit
    Writing library                : libebml v1.3.3 + libmatroska v1.4.4
    
    Video
    ID                             : 1
    Format                         : AVC
    Format/Info                    : Advanced Video Codec
    Format profile                 : High@L4.1
    Format settings                : CABAC / 4 Ref Frames
    Format settings, CABAC         : Yes
    Format settings, ReFrames      : 4 frames
    Codec ID                       : V_MPEG4/ISO/AVC
    Duration                       : 23 min 46 s
    Bit rate                       : 7 489 kb/s
    Width                          : 1 920 pixels
    Height                         : 1 080 pixels
    Display aspect ratio           : 16:9
    Frame rate mode                : Constant
    Frame rate                     : 23.976 (24000/1001) FPS
    Color space                    : YUV
    Chroma subsampling             : 4:2:0
    Bit depth                      : 8 bits
    Scan type                      : Progressive
    Bits/(Pixel*Frame)             : 0.151
    Stream size                    : 1.24 GiB (89%)
    Writing library                : x264 core 148 r2638 7599210
    Encoding settings              : cabac=1 / ref=4 / deblock=1:1:1 / analyse=0x3:0x113 / me=hex / subme=9 / psy=1 / psy_rd=0.40:0.00 / mixed_ref=1 / me_range=16 / chroma_me=1 / trellis=1 / 8x8dct=1 / cqm=0 / deadzone=21,11 / fast_pskip=1 / chroma_qp_offset=-2 / threads=18 / lookahead_threads=1 / sliced_threads=0 / nr=0 / decimate=1 / interlaced=0 / bluray_compat=0 / constrained_intra=0 / bframes=5 / b_pyramid=2 / b_adapt=1 / b_bias=0 / direct=1 / weightb=1 / open_gop=0 / weightp=2 / keyint=240 / keyint_min=23 / scenecut=40 / intra_refresh=0 / rc_lookahead=40 / rc=crf / mbtree=1 / crf=16.0 / qcomp=0.60 / qpmin=0 / qpmax=69 / qpstep=4 / vbv_maxrate=62500 / vbv_bufsize=78125 / crf_max=0.0 / nal_hrd=none / filler=0 / ip_ratio=1.40 / aq=1:0.60
    Default                        : Yes
    Forced                         : No
    
    Audio #1
    ID                             : 2
    Format                         : AC-3
    Format/Info                    : Audio Coding 3
    Codec ID                       : A_AC3
    Duration                       : 23 min 42 s
    Bit rate mode                  : Constant
    Bit rate                       : 448 kb/s
    Channel(s)                     : 6 channels
    Channel positions              : Front: L C R, Side: L R, LFE
    Sampling rate                  : 48.0 kHz
    Frame rate                     : 31.250 FPS (1536 SPF)
    Bit depth                      : 16 bits
    Compression mode               : Lossy
    Stream size                    : 75.9 MiB (5%)
    Language                       : German
    Service kind                   : Complete Main
    Default                        : Yes
    Forced                         : No
    
    Audio #2
    ID                             : 3
    Format                         : AC-3
    Format/Info                    : Audio Coding 3
    Codec ID                       : A_AC3
    Duration                       : 23 min 47 s
    Bit rate mode                  : Constant
    Bit rate                       : 448 kb/s
    Channel(s)                     : 2 channels
    Channel positions              : Front: L R
    Sampling rate                  : 48.0 kHz
    Frame rate                     : 31.250 FPS (1536 SPF)
    Bit depth                      : 16 bits
    Compression mode               : Lossy
    Stream size                    : 76.2 MiB (5%)
    Language                       : Japanese
    Service kind                   : Complete Main
    Default                        : No
    Forced                         : No
    
    Text
    ID                             : 4
    Format                         : PGS
    Muxing mode                    : zlib
    Codec ID                       : S_HDMV/PGS
    Codec ID/Info                  : Picture based subtitle format used on BDs/HD-DVDs
    Duration                       : 21 min 54 s
    Bit rate                       : 19.3 kb/s
    Count of elements              : 538
    Stream size                    : 3.03 MiB (0%)
    Default                        : Yes
    Forced                         : No
    
    

    Code:
    
    General
    Complete name                  : To.Love.Ru.Darkness.Ep.01.German.DTS.DL.1080p.BluRay.x264-AST4u.mkv
    Format                         : Matroska
    Format version                 : Version 4 / Version 2
    File size                      : 1.89 GiB
    Duration                       : 23 min 47 s
    Overall bit rate               : 11.4 Mb/s
    Encoded date                   : UTC 2018-02-27 23:12:08
    Writing application            : mkvmerge v8.8.0 ('Wind at my back') 64bit
    Writing library                : libebml v1.3.3 + libmatroska v1.4.4
    
    Video
    ID                             : 1
    Format                         : AVC
    Format/Info                    : Advanced Video Codec
    Format profile                 : High@L4.1
    Format settings                : CABAC / 4 Ref Frames
    Format settings, CABAC         : Yes
    Format settings, ReFrames      : 4 frames
    Codec ID                       : V_MPEG4/ISO/AVC
    Duration                       : 23 min 46 s
    Bit rate                       : 7 489 kb/s
    Width                          : 1 920 pixels
    Height                         : 1 080 pixels
    Display aspect ratio           : 16:9
    Frame rate mode                : Constant
    Frame rate                     : 23.976 (24000/1001) FPS
    Color space                    : YUV
    Chroma subsampling             : 4:2:0
    Bit depth                      : 8 bits
    Scan type                      : Progressive
    Bits/(Pixel*Frame)             : 0.151
    Stream size                    : 1.24 GiB (66%)
    Writing library                : x264 core 148 r2638 7599210
    Encoding settings              : cabac=1 / ref=4 / deblock=1:1:1 / analyse=0x3:0x113 / me=hex / subme=9 / psy=1 / psy_rd=0.40:0.00 / mixed_ref=1 / me_range=16 / chroma_me=1 / trellis=1 / 8x8dct=1 / cqm=0 / deadzone=21,11 / fast_pskip=1 / chroma_qp_offset=-2 / threads=18 / lookahead_threads=1 / sliced_threads=0 / nr=0 / decimate=1 / interlaced=0 / bluray_compat=0 / constrained_intra=0 / bframes=5 / b_pyramid=2 / b_adapt=1 / b_bias=0 / direct=1 / weightb=1 / open_gop=0 / weightp=2 / keyint=240 / keyint_min=23 / scenecut=40 / intra_refresh=0 / rc_lookahead=40 / rc=crf / mbtree=1 / crf=16.0 / qcomp=0.60 / qpmin=0 / qpmax=69 / qpstep=4 / vbv_maxrate=62500 / vbv_bufsize=78125 / crf_max=0.0 / nal_hrd=none / filler=0 / ip_ratio=1.40 / aq=1:0.60
    Default                        : Yes
    Forced                         : No
    
    Audio #1
    ID                             : 2
    Format                         : DTS
    Format/Info                    : Digital Theater Systems
    Format profile                 : MA / Core
    Codec ID                       : A_DTS
    Duration                       : 23 min 42 s
    Bit rate mode                  : Variable / Constant
    Bit rate                       : 2 196 kb/s / 1 509 kb/s
    Channel(s)                     : 6 channels
    Channel positions              : Front: L C R, Side: L R, LFE
    Sampling rate                  : 48.0 kHz
    Frame rate                     : 93.750 FPS (512 SPF)
    Bit depth                      : 16 bits
    Compression mode               : Lossless / Lossy
    Stream size                    : 372 MiB (19%)
    Default                        : Yes
    Forced                         : No
    
    Audio #2
    ID                             : 3
    Format                         : DTS
    Format/Info                    : Digital Theater Systems
    Format profile                 : MA / Core
    Codec ID                       : A_DTS
    Duration                       : 23 min 47 s
    Bit rate mode                  : Variable / Constant
    Bit rate                       : 1 700 kb/s / 1 509 kb/s
    Channel(s)                     : 2 channels
    Channel positions              : Front: L R
    Sampling rate                  : 48.0 kHz
    Frame rate                     : 93.750 FPS (512 SPF)
    Bit depth                      : 16 bits
    Compression mode               : Lossless / Lossy
    Stream size                    : 289 MiB (15%)
    Default                        : No
    Forced                         : No
    
    Text
    ID                             : 4
    Format                         : PGS
    Muxing mode                    : zlib
    Codec ID                       : S_HDMV/PGS
    Codec ID/Info                  : Picture based subtitle format used on BDs/HD-DVDs
    Duration                       : 21 min 54 s
    Bit rate                       : 19.3 kb/s
    Count of elements              : 538
    Stream size                    : 3.03 MiB (0%)
    Default                        : Yes
    Forced                         : No
    
    

    [​IMG]
    Onlinestatus:
    [​IMG]XviD MP3 | [​IMG]720p AC3 | [​IMG]1080p AC3 | [​IMG]1080p DTS
    Geschützter Bereich
    Registriere dich oder logge dich ein, um den Inhalt sehen zu können
     
    Zuletzt bearbeitet: 3. Aug. 2018
    Cyriix, Er4s3r, misterdsl und 68 anderen gefällt das.
  2. Ta@

    Ta@ Erfahrener Otaku Otaku König

    Registriert seit:
    7. Juli 2016
    Beiträge:
    251
    Zustimmungen:
    5.063
    To Love-Ru: Trouble - Darkness
    To Love-Ru: Trouble - Darkness

    [​IMG]
    [​IMG]
    Seit Ritos unfreiwilligem Liebesgeständnis an die Mehrzahl seiner weiblichen Bekannten ist noch gar nicht viel Zeit vergangen, schon ziehen neue Wolken am Horizont seines einstmals unbeschwerlichen Single-Daseins auf. Momo, die jüngste Schwester seiner selbsternannten Verlobten, der außerirdischen Prinzessin Lala, plant einen Harem um Rito zu errichten und scheut dabei weder Intrigen noch körperliche Nähe. Währenddessen taucht in der Gestalt von Mea Kurosaki eine undurchsichtige Fremde auf, die versucht, die ehemalige Killerin Golden Darkness aus ihrem irdischen Freundeskreis zu reißen und wieder auf den Pfad der Dunkelheit zu führen. Der Wettlauf der beiden Mädchen um ihr ultimatives Ziel nimmt seinen Lauf und Rito gerät zwischen die spärlich bekleideten Fronten...


    Folgen: 12/12
    Größe pro Folge: ~275 MB/~640 MB/~1400 MB/~1950 MB
    Folgendauer: ~24 Min
    Releaser: AST4u
    Art: Lizenzrelease
    Sprache: Japanisch, Deutsch
    Untertitel: Deutsch
    Jahr: 2012
    Genres: Ecchi, Harem, Komödie, Romanze, Scifi
    Auflösung: 720x408/1280x720/1920x1080
    Format: AVI/MKV
    Quelle: BDRip
    Videocodec: x264
    Farbtiefe: 8Bit
    Audiocodec: MP3/AC3/DTS
    Hoster: Share-Online
    [​IMG]
    Code:
    General Complete name : To.Love.Ru.Darkness.Ep.01.German.MP3.DL.BluRay.xvid-AST4u.avi Format : Matroska Format version : Version 4 / Version 2 File size : 290 MiB Duration : 23 min 47 s Overall bit rate : 1 703 kb/s Encoded date : UTC 2018-02-27 22:03:55 Writing application : mkvmerge v8.8.0 ('Wind at my back') 64bit Writing library : libebml v1.3.3 + libmatroska v1.4.4 FileExtension_Invalid : mkv mk3d mka mks Video ID : 1 Format : MPEG-4 Visual Format profile : Advanced Simple@L5 Format settings : BVOP2 Format settings, BVOP : 2 Format settings, QPel : No Format settings, GMC : No warppoints Format settings, Matrix : Default (MPEG) Codec ID : V_MS/VFW/FOURCC / XVID Codec ID/Hint : XviD Duration : 23 min 46 s Bit rate : 1 300 kb/s Width : 720 pixels Height : 408 pixels Display aspect ratio : 16:9 Frame rate mode : Constant Frame rate : 23.976 (24000/1001) FPS Color space : YUV Chroma subsampling : 4:2:0 Bit depth : 8 bits Scan type : Progressive Compression mode : Lossy Bits/(Pixel*Frame) : 0.185 Stream size : 221 MiB (76%) Writing library : XviD 67 Default : Yes Forced : No Audio #1 ID : 2 Format : MPEG Audio Format version : Version 1 Format profile : Layer 3 Format settings : Joint stereo / MS Stereo Codec ID : A_MPEG/L3 Codec ID/Hint : MP3 Duration : 23 min 42 s Bit rate mode : Constant Bit rate : 192 kb/s Channel(s) : 2 channels Sampling rate : 48.0 kHz Frame rate : 41.667 FPS (1152 SPF) Compression mode : Lossy Stream size : 32.5 MiB (11%) Writing library : LAME3.99r Encoding settings : -m j -V 4 -q 2 -lowpass 18.6 -b 192 Language : German Default : Yes Forced : No Audio #2 ID : 3 Format : MPEG Audio Format version : Version 1 Format profile : Layer 3 Format settings : Joint stereo / MS Stereo Codec ID : A_MPEG/L3 Codec ID/Hint : MP3 Duration : 23 min 47 s Bit rate mode : Constant Bit rate : 192 kb/s Channel(s) : 2 channels Sampling rate : 48.0 kHz Frame rate : 41.667 FPS (1152 SPF) Compression mode : Lossy Stream size : 32.7 MiB (11%) Writing library : LAME3.99r Encoding settings : -m j -V 4 -q 2 -lowpass 18.6 -b 192 Language : Japanese Default : No Forced : No Text ID : 4 Format : PGS Muxing mode : zlib Codec ID : S_HDMV/PGS Codec ID/Info : Picture based subtitle format used on BDs/HD-DVDs Duration : 21 min 54 s Bit rate : 19.3 kb/s Count of elements : 538 Stream size : 3.03 MiB (1%) Default : Yes Forced : No ​
    Code:
    General Complete name : To.Love.Ru.Darkness.Ep.01.German.AC3.DL.720p.BluRay.x264-AST4u.mkv Format : Matroska Format version : Version 4 / Version 2 File size : 597 MiB Duration : 23 min 47 s Overall bit rate : 3 509 kb/s Encoded date : UTC 2018-02-27 23:03:39 Writing application : mkvmerge v8.8.0 ('Wind at my back') 64bit Writing library : libebml v1.3.3 + libmatroska v1.4.4 Video ID : 1 Format : AVC Format/Info : Advanced Video Codec Format profile : High@L4.1 Format settings : CABAC / 6 Ref Frames Format settings, CABAC : Yes Format settings, RefFrames : 6 frames Codec ID : V_MPEG4/ISO/AVC Duration : 23 min 46 s Bit rate : 2 595 kb/s Width : 1 280 pixels Height : 720 pixels Display aspect ratio : 16:9 Frame rate mode : Constant Frame rate : 23.976 (24000/1001) FPS Color space : YUV Chroma subsampling : 4:2:0 Bit depth : 8 bits Scan type : Progressive Bits/(Pixel*Frame) : 0.117 Stream size : 441 MiB (74%) Writing library : x264 core 148 r2638 7599210 Encoding settings : cabac=1 / ref=6 / deblock=1:1:1 / analyse=0x3:0x113 / me=hex / subme=9 / psy=1 / psy_rd=0.40:0.00 / mixed_ref=1 / me_range=16 / chroma_me=1 / trellis=1 / 8x8dct=1 / cqm=0 / deadzone=21,11 / fast_pskip=1 / chroma_qp_offset=-2 / threads=12 / lookahead_threads=1 / sliced_threads=0 / nr=0 / decimate=1 / interlaced=0 / bluray_compat=0 / constrained_intra=0 / bframes=5 / b_pyramid=2 / b_adapt=1 / b_bias=0 / direct=1 / weightb=1 / open_gop=0 / weightp=2 / keyint=240 / keyint_min=23 / scenecut=40 / intra_refresh=0 / rc_lookahead=40 / rc=crf / mbtree=1 / crf=16.0 / qcomp=0.60 / qpmin=0 / qpmax=69 / qpstep=4 / vbv_maxrate=62500 / vbv_bufsize=78125 / crf_max=0.0 / nal_hrd=none / filler=0 / ip_ratio=1.40 / aq=1:0.60 Default : Yes Forced : No Audio #1 ID : 2 Format : AC-3 Format/Info : Audio Coding 3 Codec ID : A_AC3 Duration : 23 min 42 s Bit rate mode : Constant Bit rate : 448 kb/s Channel(s) : 6 channels Channel positions : Front: L C R, Side: L R, LFE Sampling rate : 48.0 kHz Frame rate : 31.250 FPS (1536 SPF) Bit depth : 16 bits Compression mode : Lossy Stream size : 75.9 MiB (13%) Language : German Service kind : Complete Main Default : Yes Forced : No Audio #2 ID : 3 Format : AC-3 Format/Info : Audio Coding 3 Codec ID : A_AC3 Duration : 23 min 47 s Bit rate mode : Constant Bit rate : 448 kb/s Channel(s) : 2 channels Channel positions : Front: L R Sampling rate : 48.0 kHz Frame rate : 31.250 FPS (1536 SPF) Bit depth : 16 bits Compression mode : Lossy Stream size : 76.2 MiB (13%) Language : Japanese Service kind : Complete Main Default : No Forced : No Text ID : 4 Format : PGS Muxing mode : zlib Codec ID : S_HDMV/PGS Codec ID/Info : Picture based subtitle format used on BDs/HD-DVDs Duration : 21 min 54 s Bit rate : 19.3 kb/s Count of elements : 538 Stream size : 3.03 MiB (1%) Default : Yes Forced : No ​
    Code:
    General Complete name : To.Love.Ru.Darkness.Ep.01.German.AC3.DL.1080p.BluRay.x264-AST4u.mkv Format : Matroska Format version : Version 4 / Version 2 File size : 1.40 GiB Duration : 23 min 47 s Overall bit rate : 8 402 kb/s Encoded date : UTC 2018-02-27 23:08:47 Writing application : mkvmerge v8.8.0 ('Wind at my back') 64bit Writing library : libebml v1.3.3 + libmatroska v1.4.4 Video ID : 1 Format : AVC Format/Info : Advanced Video Codec Format profile : High@L4.1 Format settings : CABAC / 4 Ref Frames Format settings, CABAC : Yes Format settings, RefFrames : 4 frames Codec ID : V_MPEG4/ISO/AVC Duration : 23 min 46 s Bit rate : 7 489 kb/s Width : 1 920 pixels Height : 1 080 pixels Display aspect ratio : 16:9 Frame rate mode : Constant Frame rate : 23.976 (24000/1001) FPS Color space : YUV Chroma subsampling : 4:2:0 Bit depth : 8 bits Scan type : Progressive Bits/(Pixel*Frame) : 0.151 Stream size : 1.24 GiB (89%) Writing library : x264 core 148 r2638 7599210 Encoding settings : cabac=1 / ref=4 / deblock=1:1:1 / analyse=0x3:0x113 / me=hex / subme=9 / psy=1 / psy_rd=0.40:0.00 / mixed_ref=1 / me_range=16 / chroma_me=1 / trellis=1 / 8x8dct=1 / cqm=0 / deadzone=21,11 / fast_pskip=1 / chroma_qp_offset=-2 / threads=18 / lookahead_threads=1 / sliced_threads=0 / nr=0 / decimate=1 / interlaced=0 / bluray_compat=0 / constrained_intra=0 / bframes=5 / b_pyramid=2 / b_adapt=1 / b_bias=0 / direct=1 / weightb=1 / open_gop=0 / weightp=2 / keyint=240 / keyint_min=23 / scenecut=40 / intra_refresh=0 / rc_lookahead=40 / rc=crf / mbtree=1 / crf=16.0 / qcomp=0.60 / qpmin=0 / qpmax=69 / qpstep=4 / vbv_maxrate=62500 / vbv_bufsize=78125 / crf_max=0.0 / nal_hrd=none / filler=0 / ip_ratio=1.40 / aq=1:0.60 Default : Yes Forced : No Audio #1 ID : 2 Format : AC-3 Format/Info : Audio Coding 3 Codec ID : A_AC3 Duration : 23 min 42 s Bit rate mode : Constant Bit rate : 448 kb/s Channel(s) : 6 channels Channel positions : Front: L C R, Side: L R, LFE Sampling rate : 48.0 kHz Frame rate : 31.250 FPS (1536 SPF) Bit depth : 16 bits Compression mode : Lossy Stream size : 75.9 MiB (5%) Language : German Service kind : Complete Main Default : Yes Forced : No Audio #2 ID : 3 Format : AC-3 Format/Info : Audio Coding 3 Codec ID : A_AC3 Duration : 23 min 47 s Bit rate mode : Constant Bit rate : 448 kb/s Channel(s) : 2 channels Channel positions : Front: L R Sampling rate : 48.0 kHz Frame rate : 31.250 FPS (1536 SPF) Bit depth : 16 bits Compression mode : Lossy Stream size : 76.2 MiB (5%) Language : Japanese Service kind : Complete Main Default : No Forced : No Text ID : 4 Format : PGS Muxing mode : zlib Codec ID : S_HDMV/PGS Codec ID/Info : Picture based subtitle format used on BDs/HD-DVDs Duration : 21 min 54 s Bit rate : 19.3 kb/s Count of elements : 538 Stream size : 3.03 MiB (0%) Default : Yes Forced : No ​
    Code:
    General Complete name : To.Love.Ru.Darkness.Ep.01.German.DTS.DL.1080p.BluRay.x264-AST4u.mkv Format : Matroska Format version : Version 4 / Version 2 File size : 1.89 GiB Duration : 23 min 47 s Overall bit rate : 11.4 Mb/s Encoded date : UTC 2018-02-27 23:12:08 Writing application : mkvmerge v8.8.0 ('Wind at my back') 64bit Writing library : libebml v1.3.3 + libmatroska v1.4.4 Video ID : 1 Format : AVC Format/Info : Advanced Video Codec Format profile : High@L4.1 Format settings : CABAC / 4 Ref Frames Format settings, CABAC : Yes Format settings, RefFrames : 4 frames Codec ID : V_MPEG4/ISO/AVC Duration : 23 min 46 s Bit rate : 7 489 kb/s Width : 1 920 pixels Height : 1 080 pixels Display aspect ratio : 16:9 Frame rate mode : Constant Frame rate : 23.976 (24000/1001) FPS Color space : YUV Chroma subsampling : 4:2:0 Bit depth : 8 bits Scan type : Progressive Bits/(Pixel*Frame) : 0.151 Stream size : 1.24 GiB (66%) Writing library : x264 core 148 r2638 7599210 Encoding settings : cabac=1 / ref=4 / deblock=1:1:1 / analyse=0x3:0x113 / me=hex / subme=9 / psy=1 / psy_rd=0.40:0.00 / mixed_ref=1 / me_range=16 / chroma_me=1 / trellis=1 / 8x8dct=1 / cqm=0 / deadzone=21,11 / fast_pskip=1 / chroma_qp_offset=-2 / threads=18 / lookahead_threads=1 / sliced_threads=0 / nr=0 / decimate=1 / interlaced=0 / bluray_compat=0 / constrained_intra=0 / bframes=5 / b_pyramid=2 / b_adapt=1 / b_bias=0 / direct=1 / weightb=1 / open_gop=0 / weightp=2 / keyint=240 / keyint_min=23 / scenecut=40 / intra_refresh=0 / rc_lookahead=40 / rc=crf / mbtree=1 / crf=16.0 / qcomp=0.60 / qpmin=0 / qpmax=69 / qpstep=4 / vbv_maxrate=62500 / vbv_bufsize=78125 / crf_max=0.0 / nal_hrd=none / filler=0 / ip_ratio=1.40 / aq=1:0.60 Default : Yes Forced : No Audio #1 ID : 2 Format : DTS Format/Info : Digital Theater Systems Format profile : MA / Core Codec ID : A_DTS Duration : 23 min 42 s Bit rate mode : Variable / Constant Bit rate : 2 196 kb/s / 1 509 kb/s Channel(s) : 6 channels Channel positions : Front: L C R, Side: L R, LFE Sampling rate : 48.0 kHz Frame rate : 93.750 FPS (512 SPF) Bit depth : 16 bits Compression mode : Lossless / Lossy Stream size : 372 MiB (19%) Default : Yes Forced : No Audio #2 ID : 3 Format : DTS Format/Info : Digital Theater Systems Format profile : MA / Core Codec ID : A_DTS Duration : 23 min 47 s Bit rate mode : Variable / Constant Bit rate : 1 700 kb/s / 1 509 kb/s Channel(s) : 2 channels Channel positions : Front: L R Sampling rate : 48.0 kHz Frame rate : 93.750 FPS (512 SPF) Bit depth : 16 bits Compression mode : Lossless / Lossy Stream size : 289 MiB (15%) Default : No Forced : No Text ID : 4 Format : PGS Muxing mode : zlib Codec ID : S_HDMV/PGS Codec ID/Info : Picture based subtitle format used on BDs/HD-DVDs Duration : 21 min 54 s Bit rate : 19.3 kb/s Count of elements : 538 Stream size : 3.03 MiB (0%) Default : Yes Forced : No ​
    SD:[​IMG]720p:[​IMG]1080p:[​IMG]1080p DTS:[​IMG]
    Geschützter Bereich
    Registriere dich oder logge dich ein, um den Inhalt sehen zu können
     
    PandaManu, Leomar, Kartox und 21 anderen gefällt das.
  3. Uploading123

    Uploading123 High Quality Anime Seelenverkäufer

    Registriert seit:
    7. März 2013
    Beiträge:
    521
    Zustimmungen:
    13.043

    To Love Ru Darkness S01

    [​IMG]

    .:Beschreibung:.
    Seit Ritos unfreiwilligem Liebesgeständnis an die Mehrzahl seiner weiblichen Bekannten ist noch gar nicht viel Zeit vergangen, schon ziehen neue Wolken am Horizont seines einstmals unbeschwerlichen Single-Daseins auf. Momo, die jüngste Schwester seiner selbsternannten Verlobten, der außerirdischen Prinzessin Lala, plant einen Harem um Rito zu errichten und scheut dabei weder Intrigen noch körperliche Nähe. Währenddessen taucht in der Gestalt von Mea Kurosaki eine undurchsichtige Fremde auf, die versucht, die ehemalige Killerin Golden Darkness aus ihrem irdischen Freundeskreis zu reißen und wieder auf den Pfad der Dunkelheit zu führen. Der Wettlauf der beiden Mädchen um ihr ultimatives Ziel nimmt seinen Lauf und Rito gerät zwischen die spärlich bekleideten Fronten...

    .:Info:.
    Größe:
    23890 MB
    Laufzeit: 24 Min.
    Format: .mkv
    Video Stream: BD
    Video Codec: MPEG-4 H.264 / AVC
    Audio Stream: DTS-HD MA 5.1
    Sprache/n: GER, JPN
    Untertitel: GER
    Releaser: AST4u
    Episodenanzahl: 12/12
    Hoster: SO, RG

    .:NFO:.
    Code:
    To.Love.Ru.Darkness.S01.Complete.German.DTS.2.0.DL.1080p.BluRay.x264-AST4u (NEU)
    
    Originaltitel: To Love-Ru: Trouble - Darkness
    Sprache: Deutsch, Japanisch
    Untertitel: Deutsch
    FSK: 16 Jahre
    Erscheinungstermin: 16.03.2018 - 17.08.2018 (NEU)
    Genre: Romance, Comedy, Ecchi, Scifi, Fantasy
    Source: BluRay
    Releasedatum: 02.08.2018
    
    Episoden...............: 01-12 / 12
    
    Format                                   : Matroska
    Dateigroesse                             : 23.30 GB
    Dauer                                    : 12 x 24 Min
    Gesamte Bitrate                          : 8 220 kb/s
    
    Video
    Format                                   : AVC
    Format-Profil                            : High@L4.1
    Bitraten-Modus                           : variabel
    Bitrate                                  : crf 16
    Breite                                   : 1 920 Pixel
    H he                                     : 1 080 Pixel
    BildseitenverhSltnis                     : 16:9
    Modus der Bildwiederholungsrate          : konstant
    Bildwiederholungsrate                    : 23,976 FPS
    
    Audio
    deutsch: DTS MA 2.0
    Bitrate: 1 076 kb/s / 768 kb/s
    
    japanisch: DTS MA 2.0
    Bitrate: 1 081 kb/s / 768 kb/s
    
    Original BluRay und encodet by AST4u-HD-Crew
    
    Seit Ritos unfreiwilligem LiebesgestSndnis an die Mehrzahl seiner weiblichen Bekannten ist
      noch gar nicht viel Zeit vergangen, schon ziehen neue Wolken am Horizont seines einstmals
      unbeschwerlichen Single-Daseins auf. Momo, die jnngste Schwester seiner selbsternannten
      Verlobten, der ausserirdischen Prinzessin Lala, plant einen Harem fnr Rito zu errichten
      und scheut dabei weder Intrigen noch k rperliche NShe.
    
    WShrenddessen taucht eine undurchsichtige Fremde auf, die versucht, die ehemalige Killerin
      Golden Darkness aus ihrem irdischen Freundeskreis zu reissen und wieder auf den Pfad der
      Dunkelheit zu fnhren.
    
    Der Kampf der beiden MSdchen um ihr ultimatives Ziel nimmt seinen Lauf und Rito gerSt
      zwischen die spSrlich bekleideten Fronten
    
    Saki beschliesst einen Sch nheitswettbewerb zu veranstalten und fordert ihre gr sste
      Konkurrentin Lala heraus. Um sich einen Vorteil zu verschaffen, baut Lala einen
      Roboterhund, der wShrend des Wettbewerbs die Kleidung von Saki fressen soll, sodass sie
      vor der gesamten Schule blamiert wird. Saki wird misstrauisch und beginnt, Lala
      auszuspionieren. Als sie im Zuge ihrer Nachforschungen in Ritos Haus eindringt, kommt es
      durch ein Missgeschick zum Abheben des Zimmers und Saki fSllt in die Tiefe. Lala eilt ihr
      sofort zur Hilfe. Kann sie Saki retten?
    
    Durch eine missglnckte Erfindung kleben Yamis und Ritos K rper pl tzlich aneinander und
      sie mnssen den ganzen Tag zusammen verbringen. Dabei entstehen zahlreiche peinliche
      Situationen, bei denen K rperkontakt unvermeidbar ist...
    Ein Rnckblick zeigt, wer Yami, ôdie goldene Finsternisö wirklich ist und mit welchem Ziel
      sie von ihren Sch pfern erschaffen wurde. Mea, ihre Schwester bekommt einen neuen Auftrag
      von ihrem Meister. Dieser wird Yami und ihre Freunde erneut in Gefahr bringen...
    
    01 Fortsetzung
    02 Zweifel und Mahlzeit
    03 Jede Spekulation
    04 Die Vergangenheit, Freunde und LScheln
    05 Die sich VerSndernden
    06 Wenn du dich verSnderst...
    07 Eine Glnck bringende Erfindung
    08 Glnckliche Verbindungen
    09 Wie Yami sich wirklich fnhlt
    10 Die an das Morgen gebundenen Erinnerungen
    11 Was ist ein Lebensstil?
    12 Die Gefnhle eines jungen MSdchens
    
    https://ast4u.me
    


    Mirrors kompatibel

    .:Share-online.biz:. [​IMG]
    Geschützter Bereich
    Registriere dich oder logge dich ein, um den Inhalt sehen zu können
    .:Rapidgator.net:. [​IMG]
    Geschützter Bereich
    Registriere dich oder logge dich ein, um den Inhalt sehen zu können
     
    zimbo201174 und Mr.Shit gefällt das.