Welcome to our Community
Wanting to join the rest of our members? Feel free to sign up today.
Sign up

Toilet-Bound Hanako-kun | Jibaku Shounen Hanako-kun [Ger-Jap-Dub][Ger-Sub][720p|1080p][E-AC-3|DTS-HD][8bits|10bits][x264|x265][BluRay] - AO

Azugo

H͓̽u͓̽g͓̽o͓̽ ͓̽&͓̽ ͓̽A͓̽z͓̽u͓̽r͓̽a͓̽
Otaku Gott
Uploader
25 März 2020
3.189
24.363
113


Toilet-Bound Hanako-kun | Jibaku Shounen Hanako-kun



pe8WM8x.png



SRXGgee.png
anisearch.com schrieb:
An der Kamome Academy machen Gerüchte über die »sieben Mysterien der Schule« die Runde. Eine dieser Mysterien ist die Legende von dem »Schulgeist Hanako-san«. Hanako-san, die in der dritten Kabine der Mädchentoilette im dritten Stock des alten Schulgebäudes herumlungert, erfüllt einem jeden Wunsch, wenn man sie ruft.

Die Oberschülerin Nene Yashiro, die das Okkulte liebt und unentwegt von Romantik und Liebe träumt, wagt sich in die heimgesuchte Kabine. Doch die Hanako-san, die sie dort trifft, ist allerdings überhaupt nicht diejenige, die sie sich vorgestellt hat! »Hanako-san von der Kamome Academy« ist … ein Junge?!
Quelle: https://www.anisearch.de/anime/14253



t3RZ5BD.png


Spieldauer: ~24min
Genre: Romantische Komödie
Nebengenres: Alltagsleben, Geistergeschichten, Mystery, Romanze
Jahr: 2020
Sprache:
Deutsch.png
Deutsch,
Japanisch.png
Japanisch
Untertitel:
Deutsch.png
Deutsch
Größe pro Folge: ~1010mb, ~2290mb ~2610mb, ~2400mb
Episodenanzahl: 12/12
Format: MKV
Auflösung: 720p (16:9), 1080p (16:9)
Videocodec: H264 (AVC), H265 (HEVC)
Audiocodec: E-AC-3, DTS-HD
Releasegruppe: Anime Otakus
Hoster:
rapidgator-gif.30742
Rapidgator,
ddownload-gif.30720
ddownload


QTQOKDS.png

Rich (BBCode):
Format                                   : Matroska
Format version                           : Version 4
File size                                : 1.01 GiB
Duration                                 : 24 min 7 s
Overall bit rate                         : 6 004 kb/s
Encoded date                             : UTC 2022-05-09 21:04:37
Writing application                      : mkvmerge v67.0.0 ('Under Stars') 64-bit
Writing library                          : libebml v1.4.2 + libmatroska v1.6.4
Release by                               : Anime Otakus
Version                                  : 1.2

Video
ID                                       : 1
Format                                   : AVC
Format/Info                              : Advanced Video Codec
Format profile                           : [email protected]
Format settings                          : CABAC / 8 Ref Frames
Format settings, CABAC                   : Yes
Format settings, Reference frames        : 8 frames
Codec ID                                 : V_MPEG4/ISO/AVC
Duration                                 : 24 min 7 s
Bit rate                                 : 4 706 kb/s
Width                                    : 1 280 pixels
Height                                   : 720 pixels
Display aspect ratio                     : 16:9
Frame rate mode                          : Constant
Frame rate                               : 23.976 (24000/1001) FPS
Color space                              : YUV
Chroma subsampling                       : 4:2:0
Bit depth                                : 8 bits
Scan type                                : Progressive
Bits/(Pixel*Frame)                       : 0.213
Stream size                              : 812 MiB (78%)
Language                                 : English
Default                                  : No
Forced                                   : No
Color range                              : Limited
Color primaries                          : BT.709
Transfer characteristics                 : BT.709
Matrix coefficients                      : BT.709

Audio #1
ID                                       : 3
Format                                   : E-AC-3
Format/Info                              : Enhanced AC-3
Commercial name                          : Dolby Digital Plus
Codec ID                                 : A_EAC3
Duration                                 : 24 min 7 s
Bit rate mode                            : Constant
Bit rate                                 : 640 kb/s
Channel(s)                               : 2 channels
Channel layout                           : L R
Sampling rate                            : 48.0 kHz
Frame rate                               : 31.250 FPS (1536 SPF)
Bit depth                                : 32 bits
Compression mode                         : Lossy
Delay relative to video                  : -5 ms
Stream size                              : 110 MiB (11%)
Title                                    : Stereo
Language                                 : German
Service kind                             : Complete Main
Default                                  : Yes
Forced                                   : No

Audio #2
ID                                       : 4
Format                                   : E-AC-3
Format/Info                              : Enhanced AC-3
Commercial name                          : Dolby Digital Plus
Codec ID                                 : A_EAC3
Duration                                 : 24 min 7 s
Bit rate mode                            : Constant
Bit rate                                 : 640 kb/s
Channel(s)                               : 2 channels
Channel layout                           : L R
Sampling rate                            : 48.0 kHz
Frame rate                               : 31.250 FPS (1536 SPF)
Bit depth                                : 32 bits
Compression mode                         : Lossy
Delay relative to video                  : -5 ms
Stream size                              : 110 MiB (11%)
Title                                    : Stereo
Language                                 : Japanese
Service kind                             : Complete Main
Default                                  : No
Forced                                   : No

Text
ID                                       : 2
Format                                   : PGS
Muxing mode                              : zlib
Codec ID                                 : S_HDMV/PGS
Codec ID/Info                            : Picture based subtitle format used on BDs/HD-DVDs
Duration                                 : 22 min 25 s
Bit rate                                 : 44.9 kb/s
Count of elements                        : 724
Stream size                              : 7.21 MiB (1%)
Title                                    : German Full
Language                                 : German
Default                                  : No
Forced                                   : No

Menu
00:00:00.000                             : :Chapter 01
00:02:11.756                             : :Chapter 02
00:03:42.013                             : :Chapter 03
00:13:37.691                             : :Chapter 04
00:22:04.281                             : :Chapter 05
00:23:50.887                             : :Chapter 06


Rich (BBCode):
Format                                   : Matroska
Format version                           : Version 4
File size                                : 2.29 GiB
Duration                                 : 24 min 7 s
Overall bit rate                         : 13.6 Mb/s
Encoded date                             : UTC 2022-05-11 08:49:45
Writing application                      : mkvmerge v67.0.0 ('Under Stars') 64-bit
Writing library                          : libebml v1.4.2 + libmatroska v1.6.4
Release by                               : Anime Otakus
Version                                  : 1.2

Video
ID                                       : 1
Format                                   : AVC
Format/Info                              : Advanced Video Codec
Format profile                           : [email protected]
Format settings                          : CABAC / 12 Ref Frames
Format settings, CABAC                   : Yes
Format settings, Reference frames        : 12 frames
Codec ID                                 : V_MPEG4/ISO/AVC
Duration                                 : 24 min 7 s
Bit rate                                 : 12.3 Mb/s
Width                                    : 1 920 pixels
Height                                   : 1 080 pixels
Display aspect ratio                     : 16:9
Frame rate mode                          : Constant
Frame rate                               : 23.976 (24000/1001) FPS
Color space                              : YUV
Chroma subsampling                       : 4:2:0
Bit depth                                : 8 bits
Scan type                                : Progressive
Bits/(Pixel*Frame)                       : 0.248
Stream size                              : 2.07 GiB (90%)
Language                                 : English
Default                                  : No
Forced                                   : No
Color range                              : Limited
Color primaries                          : BT.709
Transfer characteristics                 : BT.709
Matrix coefficients                      : BT.709

Audio #1
ID                                       : 3
Format                                   : E-AC-3
Format/Info                              : Enhanced AC-3
Commercial name                          : Dolby Digital Plus
Codec ID                                 : A_EAC3
Duration                                 : 24 min 7 s
Bit rate mode                            : Constant
Bit rate                                 : 640 kb/s
Channel(s)                               : 2 channels
Channel layout                           : L R
Sampling rate                            : 48.0 kHz
Frame rate                               : 31.250 FPS (1536 SPF)
Bit depth                                : 32 bits
Compression mode                         : Lossy
Delay relative to video                  : -5 ms
Stream size                              : 110 MiB (5%)
Title                                    : Stereo
Language                                 : German
Service kind                             : Complete Main
Default                                  : Yes
Forced                                   : No

Audio #2
ID                                       : 4
Format                                   : E-AC-3
Format/Info                              : Enhanced AC-3
Commercial name                          : Dolby Digital Plus
Codec ID                                 : A_EAC3
Duration                                 : 24 min 7 s
Bit rate mode                            : Constant
Bit rate                                 : 640 kb/s
Channel(s)                               : 2 channels
Channel layout                           : L R
Sampling rate                            : 48.0 kHz
Frame rate                               : 31.250 FPS (1536 SPF)
Bit depth                                : 32 bits
Compression mode                         : Lossy
Delay relative to video                  : -5 ms
Stream size                              : 110 MiB (5%)
Title                                    : Stereo
Language                                 : Japanese
Service kind                             : Complete Main
Default                                  : No
Forced                                   : No

Text
ID                                       : 2
Format                                   : PGS
Muxing mode                              : zlib
Codec ID                                 : S_HDMV/PGS
Codec ID/Info                            : Picture based subtitle format used on BDs/HD-DVDs
Duration                                 : 22 min 25 s
Bit rate                                 : 44.9 kb/s
Count of elements                        : 724
Stream size                              : 7.21 MiB (0%)
Title                                    : German Full
Language                                 : German
Default                                  : No
Forced                                   : No

Menu
00:00:00.000                             : :Chapter 01
00:02:11.756                             : :Chapter 02
00:03:42.013                             : :Chapter 03
00:13:37.691                             : :Chapter 04
00:22:04.281                             : :Chapter 05
00:23:50.887                             : :Chapter 06

Rich (BBCode):
Format                                   : Matroska
Format version                           : Version 4
File size                                : 2.61 GiB
Duration                                 : 24 min 7 s
Overall bit rate mode                    : Variable
Overall bit rate                         : 15.5 Mb/s
Encoded date                             : UTC 2022-05-09 21:03:58
Writing application                      : mkvmerge v67.0.0 ('Under Stars') 64-bit
Writing library                          : libebml v1.4.2 + libmatroska v1.6.4
Release by                               : Anime Otakus
Version                                  : 1.2

Video
ID                                       : 1
Format                                   : AVC
Format/Info                              : Advanced Video Codec
Format profile                           : [email protected]
Format settings                          : CABAC / 12 Ref Frames
Format settings, CABAC                   : Yes
Format settings, Reference frames        : 12 frames
Codec ID                                 : V_MPEG4/ISO/AVC
Duration                                 : 24 min 7 s
Width                                    : 1 920 pixels
Height                                   : 1 080 pixels
Display aspect ratio                     : 16:9
Frame rate mode                          : Constant
Frame rate                               : 23.976 (24000/1001) FPS
Color space                              : YUV
Chroma subsampling                       : 4:2:0
Bit depth                                : 8 bits
Scan type                                : Progressive
Language                                 : English
Default                                  : No
Forced                                   : No
Color range                              : Limited
Color primaries                          : BT.709
Transfer characteristics                 : BT.709
Matrix coefficients                      : BT.709

Audio #1
ID                                       : 3
Format                                   : DTS XLL
Format/Info                              : Digital Theater Systems
Commercial name                          : DTS-HD Master Audio
Codec ID                                 : A_DTS
Duration                                 : 24 min 7 s
Bit rate mode                            : Variable
Channel(s)                               : 2 channels
Channel layout                           : L R
Sampling rate                            : 48.0 kHz
Frame rate                               : 93.750 FPS (512 SPF)
Bit depth                                : 16 bits
Compression mode                         : Lossless
Title                                    : Stereo
Language                                 : German
Default                                  : Yes
Forced                                   : No

Audio #2
ID                                       : 4
Format                                   : DTS XLL
Format/Info                              : Digital Theater Systems
Commercial name                          : DTS-HD Master Audio
Codec ID                                 : A_DTS
Duration                                 : 24 min 7 s
Bit rate mode                            : Variable
Channel(s)                               : 2 channels
Channel layout                           : L R
Sampling rate                            : 48.0 kHz
Frame rate                               : 93.750 FPS (512 SPF)
Bit depth                                : 16 bits
Compression mode                         : Lossless
Title                                    : Stereo
Language                                 : Japanese
Default                                  : No
Forced                                   : No

Text
ID                                       : 2
Format                                   : PGS
Muxing mode                              : zlib
Codec ID                                 : S_HDMV/PGS
Codec ID/Info                            : Picture based subtitle format used on BDs/HD-DVDs
Title                                    : German Full
Language                                 : German
Default                                  : No
Forced                                   : No

Menu
00:00:00.000                             : :Chapter 01
00:02:11.756                             : :Chapter 02
00:03:42.013                             : :Chapter 03
00:13:37.691                             : :Chapter 04
00:22:04.281                             : :Chapter 05
00:23:50.887                             : :Chapter 06

Rich (BBCode):
Format                                   : Matroska
Format version                           : Version 4
File size                                : 2.40 GiB
Duration                                 : 24 min 7 s
Overall bit rate mode                    : Variable
Overall bit rate                         : 14.2 Mb/s
Encoded date                             : UTC 2022-05-10 20:21:50
Writing application                      : mkvmerge v67.0.0 ('Under Stars') 64-bit
Writing library                          : libebml v1.4.2 + libmatroska v1.6.4
Release by                               : Anime Otakus
Version                                  : 1.2

Video
ID                                       : 1
Format                                   : HEVC
Format/Info                              : High Efficiency Video Coding
Format profile                           : Main [email protected]@Main
Codec ID                                 : V_MPEGH/ISO/HEVC
Duration                                 : 24 min 7 s
Width                                    : 1 920 pixels
Height                                   : 1 080 pixels
Display aspect ratio                     : 16:9
Frame rate mode                          : Constant
Frame rate                               : 23.976 (24000/1001) FPS
Color space                              : YUV
Chroma subsampling                       : 4:2:0 (Type 0)
Bit depth                                : 10 bits
Language                                 : English
Default                                  : No
Forced                                   : No
Color range                              : Limited
Color primaries                          : BT.709
Transfer characteristics                 : BT.709
Matrix coefficients                      : BT.709

Audio #1
ID                                       : 3
Format                                   : DTS XLL
Format/Info                              : Digital Theater Systems
Commercial name                          : DTS-HD Master Audio
Codec ID                                 : A_DTS
Duration                                 : 24 min 7 s
Bit rate mode                            : Variable
Channel(s)                               : 2 channels
Channel layout                           : L R
Sampling rate                            : 48.0 kHz
Frame rate                               : 93.750 FPS (512 SPF)
Bit depth                                : 16 bits
Compression mode                         : Lossless
Title                                    : Stereo
Language                                 : German
Default                                  : Yes
Forced                                   : No

Audio #2
ID                                       : 4
Format                                   : DTS XLL
Format/Info                              : Digital Theater Systems
Commercial name                          : DTS-HD Master Audio
Codec ID                                 : A_DTS
Duration                                 : 24 min 7 s
Bit rate mode                            : Variable
Channel(s)                               : 2 channels
Channel layout                           : L R
Sampling rate                            : 48.0 kHz
Frame rate                               : 93.750 FPS (512 SPF)
Bit depth                                : 16 bits
Compression mode                         : Lossless
Title                                    : Stereo
Language                                 : Japanese
Default                                  : No
Forced                                   : No

Text
ID                                       : 2
Format                                   : PGS
Muxing mode                              : zlib
Codec ID                                 : S_HDMV/PGS
Codec ID/Info                            : Picture based subtitle format used on BDs/HD-DVDs
Title                                    : German Full
Language                                 : German
Default                                  : No
Forced                                   : No

Menu
00:00:00.000                             : :Chapter 01
00:02:11.756                             : :Chapter 02
00:03:42.013                             : :Chapter 03
00:13:37.691                             : :Chapter 04
00:22:04.281                             : :Chapter 05
00:23:50.887                             : :Chapter 06





p6tlRgE.png

fqfOvST.png

720p EAC3
6074ABA798.png

1080p EAC3
A5B415AB2D.png

1080p DTS-HD
201840E212.png

x265 1080p DTS-HD
5ACED67D37.png


OQ7Exm0.png

720p EAC3
4D025827B6.png

1080p EAC3
460A0EDC3B.png

1080p DTS-HD
E83FB6B4C7.png

x265 1080p DTS-HD
D28678485B.png


To view the content, you need to Sign In or Register.

 
Zuletzt bearbeitet: