Welcome to our Community
Wanting to join the rest of our members? Feel free to sign up today.
Sign up

Tokyo Revengers: Christmas Showdown | Tokyo Revengers: Seiya Kessen Hen [Laufend][Jap-Eng-Dub][Ger-Eng-Sub][720p|1080p][Web-DL] - DisneyPlus

Azugo

H͓̽u͓̽g͓̽o͓̽ ͓̽&͓̽ ͓̽A͓̽z͓̽u͓̽r͓̽a͓̽
Otaku Gott
Uploader
25 März 2020
3.278
26.371
118


Tokyo Revengers: Christmas Showdown | Tokyo Revengers: Seiya Kessen Hen




16927_300.webp



oie_bchbujbgr3vm-png.30595

anisearch.com schrieb:
Kisaki ist im Begriff, Takemichi zu erschießen, als dieser von Kazutora gerettet wird. Kazutora hat eigentlich vorgehabt, Chifuyu zu retten, doch es war schon zu spät. Er kritisiert Takemichi dafür, in all den Jahren nichts getan zu haben, während Chifuyu sich ganz alleine durchschlagen musste. Takemichi realisiert, dass er in der aktuellen Zeitspanne niemand war, dem Chifuyu vertrauen konnte. Kazutora erzählt Takemichi, dass die Toman inzwischen so groß geworden ist, dass sie vom Weg abgekommen ist. Draken befindet sich im Todestrakt und Mikeys Aufenthaltsort ist unbekannt. Wo möchte die Toman nun hin? Sie ist nicht die Gang, wie Mikey sie sich vorgestellt hat und mit der er eine neue Ära einläuten wollte. Takemichi und Kazutora setzen indessen alles daran, ihre Toman zurückzuholen!

Von Kazutora erfährt Takemichi die wichtigsten Eckpunkte, um sich einen groben Überblick über die Geschehnisse dieser Zeitebene zu verschaffen. Offenbar hat Mikey selbst Toman zu der Verbrecherbande gemacht, die sie heute ist. Das viele Geld von Black Dragon hat ihn korrumpiert.

Als Takemichi auf einen weiteren Verbündeten, Naoto, trifft, ist er zunächst erfreut, wird von diesem jedoch sofort verhaftet. Die Anklage lautet auf Anstiftung zum Mord. Naoto ist jedoch immer noch auf Takemichis Seite. Da Hinata in jeder Zeitebene stirbt, egal wie oft Takemichi auch zurückreist und dadurch die Gegenwart ändert, stellt Naoto eine gewagte Vermutung an: Kisaki ist von Takemichi und Hinata besessen. Takemichi macht sich nun ein weiteres Mal in die Vergangenheit auf, um herauszufinden, was zwischen ihm, Hinata und Kisaki damals vorgefallen ist. Das könnte der Schlüssel zum Geheimnis von Hinatas Tod sein …
Quelle: https://www.anisearch.de/anime/16927



oie_bchbujbgr3vm1-png.30596


Spieldauer: ~24min
Genre: Romantische Komödie
Nebengenres: Alltagsleben, Ecchi, Harem
Sprache:
Japanisch.png
Japanisch
Untertitel:
Deutsch.png
Deutsch,
Englisch.png
Englisch
Größe pro Folge: ~418mb. ~731mb
Episodenanzahl: 05/13
Format: MKV
Auflösung: 720p (16:9), 1080p (16:9)
Videocodec: H264 (AVC)
Audiocodec: AAC
Releasegruppe: Anime Otakus
Hoster:
rapidgator-gif.30742
Rapidgator,
ddownload-gif.30720
ddownload


oie_bchbujbgr3vm2-png.30597

Rich (BBCode):
Format                                   : Matroska
Format version                           : Version 4
File size                                : 418 MiB
Duration                                 : 24 min 33 s
Overall bit rate mode                    : Variable
Overall bit rate                         : 2 381 kb/s
Encoded date                             : UTC 2023-02-06 19:40:23
Writing application                      : mkvmerge v73.0.0 ('25 or 6 to 4') 64-bit
Writing library                          : libebml v1.4.4 + libmatroska v1.7.1

Video
ID                                       : 1
Format                                   : AVC
Format/Info                              : Advanced Video Codec
Format profile                           : [email protected]
Format settings                          : CABAC / 4 Ref Frames
Format settings, CABAC                   : Yes
Format settings, Reference frames        : 4 frames
Codec ID                                 : V_MPEG4/ISO/AVC
Duration                                 : 24 min 33 s
Bit rate mode                            : Variable
Bit rate                                 : 2 127 kb/s
Maximum bit rate                         : 6 375 kb/s
Width                                    : 1 280 pixels
Height                                   : 720 pixels
Display aspect ratio                     : 16:9
Frame rate mode                          : Constant
Frame rate                               : 23.976 (24000/1001) FPS
Color space                              : YUV
Chroma subsampling                       : 4:2:0
Bit depth                                : 8 bits
Scan type                                : Progressive
Bits/(Pixel*Frame)                       : 0.096
Stream size                              : 374 MiB (89%)
Default                                  : Yes
Forced                                   : No
Color range                              : Limited
Color primaries                          : BT.709
Transfer characteristics                 : BT.709
Matrix coefficients                      : BT.709

Audio #1
ID                                       : 2
Format                                   : AAC LC
Format/Info                              : Advanced Audio Codec Low Complexity
Codec ID                                 : A_AAC-2
Duration                                 : 24 min 33 s
Bit rate                                 : 125 kb/s
Channel(s)                               : 2 channels
Channel layout                           : L R
Sampling rate                            : 48.0 kHz
Frame rate                               : 46.875 FPS (1024 SPF)
Compression mode                         : Lossy
Stream size                              : 22.0 MiB (5%)
Title                                    : English
Language                                 : English
Default                                  : Yes
Forced                                   : No

Audio #2
ID                                       : 3
Format                                   : AAC LC
Format/Info                              : Advanced Audio Codec Low Complexity
Codec ID                                 : A_AAC-2
Duration                                 : 24 min 33 s
Bit rate                                 : 125 kb/s
Channel(s)                               : 2 channels
Channel layout                           : L R
Sampling rate                            : 48.0 kHz
Frame rate                               : 46.875 FPS (1024 SPF)
Compression mode                         : Lossy
Stream size                              : 22.0 MiB (5%)
Title                                    : Japanese
Language                                 : Japanese
Default                                  : No
Forced                                   : No

Text #1
ID                                       : 4
Format                                   : UTF-8
Codec ID                                 : S_TEXT/UTF8
Codec ID/Info                            : UTF-8 Plain Text
Duration                                 : 1 min 36 s
Bit rate                                 : 3 b/s
Count of elements                        : 2
Stream size                              : 38.0 Bytes (0%)
Title                                    : English [Forced]
Language                                 : English
Default                                  : No
Forced                                   : Yes

Text #2
ID                                       : 5
Format                                   : UTF-8
Codec ID                                 : S_TEXT/UTF8
Codec ID/Info                            : UTF-8 Plain Text
Duration                                 : 23 min 32 s
Bit rate                                 : 59 b/s
Count of elements                        : 348
Stream size                              : 10.3 KiB (0%)
Title                                    : English [Full]
Language                                 : English
Default                                  : No
Forced                                   : No

Text #3
ID                                       : 6
Format                                   : UTF-8
Codec ID                                 : S_TEXT/UTF8
Codec ID/Info                            : UTF-8 Plain Text
Duration                                 : 23 min 32 s
Bit rate                                 : 61 b/s
Count of elements                        : 346
Stream size                              : 10.6 KiB (0%)
Title                                    : German [Full]
Language                                 : German
Default                                  : No
Forced                                   : No

Rich (BBCode):
Format                                   : Matroska
Format version                           : Version 4
File size                                : 731 MiB
Duration                                 : 24 min 33 s
Overall bit rate mode                    : Variable
Overall bit rate                         : 4 162 kb/s
Encoded date                             : UTC 2023-02-06 19:42:13
Writing application                      : mkvmerge v73.0.0 ('25 or 6 to 4') 64-bit
Writing library                          : libebml v1.4.4 + libmatroska v1.7.1

Video
ID                                       : 1
Format                                   : AVC
Format/Info                              : Advanced Video Codec
Format profile                           : [email protected]
Format settings                          : CABAC / 4 Ref Frames
Format settings, CABAC                   : Yes
Format settings, Reference frames        : 4 frames
Codec ID                                 : V_MPEG4/ISO/AVC
Duration                                 : 24 min 33 s
Bit rate mode                            : Variable
Bit rate                                 : 3 908 kb/s
Maximum bit rate                         : 12.7 Mb/s
Width                                    : 1 920 pixels
Height                                   : 1 080 pixels
Display aspect ratio                     : 16:9
Frame rate mode                          : Constant
Frame rate                               : 23.976 (24000/1001) FPS
Color space                              : YUV
Chroma subsampling                       : 4:2:0
Bit depth                                : 8 bits
Scan type                                : Progressive
Bits/(Pixel*Frame)                       : 0.079
Stream size                              : 686 MiB (94%)
Default                                  : Yes
Forced                                   : No
Color range                              : Limited
Color primaries                          : BT.709
Transfer characteristics                 : BT.709
Matrix coefficients                      : BT.709

Audio #1
ID                                       : 2
Format                                   : AAC LC
Format/Info                              : Advanced Audio Codec Low Complexity
Codec ID                                 : A_AAC-2
Duration                                 : 24 min 33 s
Bit rate                                 : 125 kb/s
Channel(s)                               : 2 channels
Channel layout                           : L R
Sampling rate                            : 48.0 kHz
Frame rate                               : 46.875 FPS (1024 SPF)
Compression mode                         : Lossy
Stream size                              : 22.0 MiB (3%)
Title                                    : English
Language                                 : English
Default                                  : Yes
Forced                                   : No

Audio #2
ID                                       : 3
Format                                   : AAC LC
Format/Info                              : Advanced Audio Codec Low Complexity
Codec ID                                 : A_AAC-2
Duration                                 : 24 min 33 s
Bit rate                                 : 125 kb/s
Channel(s)                               : 2 channels
Channel layout                           : L R
Sampling rate                            : 48.0 kHz
Frame rate                               : 46.875 FPS (1024 SPF)
Compression mode                         : Lossy
Stream size                              : 22.0 MiB (3%)
Title                                    : Japanese
Language                                 : Japanese
Default                                  : No
Forced                                   : No

Text #1
ID                                       : 4
Format                                   : UTF-8
Codec ID                                 : S_TEXT/UTF8
Codec ID/Info                            : UTF-8 Plain Text
Duration                                 : 1 min 36 s
Bit rate                                 : 3 b/s
Count of elements                        : 2
Stream size                              : 38.0 Bytes (0%)
Title                                    : English [Forced]
Language                                 : English
Default                                  : No
Forced                                   : Yes

Text #2
ID                                       : 5
Format                                   : UTF-8
Codec ID                                 : S_TEXT/UTF8
Codec ID/Info                            : UTF-8 Plain Text
Duration                                 : 23 min 32 s
Bit rate                                 : 59 b/s
Count of elements                        : 348
Stream size                              : 10.3 KiB (0%)
Title                                    : English [Full]
Language                                 : English
Default                                  : No
Forced                                   : No

Text #3
ID                                       : 6
Format                                   : UTF-8
Codec ID                                 : S_TEXT/UTF8
Codec ID/Info                            : UTF-8 Plain Text
Duration                                 : 23 min 32 s
Bit rate                                 : 61 b/s
Count of elements                        : 346
Stream size                              : 10.6 KiB (0%)
Title                                    : German [Full]
Language                                 : German
Default                                  : No
Forced                                   : No




oie_bchbujbgr3vm3-png.30598

cooltext396117611400625-png.30739

D84D86F834.png

cooltext3961176114006251-png.30741

B3C7BA1BB3.png

To view the content, you need to Sign In or Register.