Wir verwenden Cookies, um deinen Aufenthalt auf Animes.so möglichst angenehm gestalten zu können. Mehr erfahren

UQ Holder! Magister Negi Magi Negima! 2 [Laufend][Ger-Jap-Dub][Ger-Sub][AC-3|DTS-HD][404p|720p|1080p][BluRay] - AST4u

Dieses Thema im Forum "Download Archiv" wurde erstellt von Ta@, 24. Feb. 2019.

  1. Ta@

    Ta@ Erfahrener Otaku Otaku König

    Registriert seit:
    7. Juli 2016
    Beiträge:
    219
    Zustimmungen:
    18.439
    UQ Holder!: Mahou Sensei Negima! 2
    UQ Holder! Magister Negi Magi Negima! 2

    [​IMG]
    [​IMG]

    Weil er sein ganzes Leben in einer ruhigen, friedlichen Stadt auf dem Land verbracht hat, träumt Touta Konoe nur von einer Sache: endlich in die Hauptstadt zu ziehen, aufregende Abenteuer zu erleben und berühmt zu werden! Dazu muss er aber erst seine Pflegemutter und Lehrerin Yukihime besiegen, die eine erfahrene und mächtige Magierin ist. Zusammen mit seinen besten Freunden trainiert er daher jeden Tag. Doch dann taucht plötzlich ein gefährlicher Kopfgeldjäger auf und stört den Frieden des Dorfes. Als schon alles verloren scheint, erfährt Touta die Wahrheit über seine Vergangenheit und die wirkliche Identität von Yukihime…

    Folgen: 6/12
    Größe pro Folge: ~300 MB/~600 MB/~1150 MB/~1400 MB
    Folgendauer: ~24 Min
    Releaser: AST4u
    Art: Lizenzrelease
    Sprache: Japanisch, Deutsch
    Untertitel: Deutsch
    Jahr: 2017
    Genres: Action, Ecchi, Harem, Komödie, Übermäßige Gewaltdarstellung
    Auflösung: 720x404/1280x720/1920x1080
    Format: MKV
    Quelle: BluRay
    Videocodec: x264
    Farbtiefe: 8Bit
    Audiocodec: AC3/DTS
    Publisher: peppermint anime
    Hoster: Share-Online

    [​IMG]
    Code:
    General Complete name : UQ.Holder.Ep01.German.AC3.DL.BDRip.x264-AST4u.mkv Format : Matroska Format version : Version 4 File size : 292 MiB Duration : 23 min 47 s Overall bit rate : 1 716 kb/s Encoded date : UTC 2019-02-23 21:11:29 Writing application : mkvmerge v15.0.0 ('Duel with the Devil') 64-bit Writing library : libebml v1.3.5 + libmatroska v1.4.5 Video ID : 1 Format : AVC Format/Info : Advanced Video Codec Format profile : High@L4.1 Format settings : CABAC / 4 Ref Frames Format settings, CABAC : Yes Format settings, RefFrames : 4 frames Codec ID : V_MPEG4/ISO/AVC Duration : 23 min 47 s Bit rate : 939 kb/s Width : 720 pixels Height : 404 pixels Display aspect ratio : 16:9 Frame rate mode : Constant Frame rate : 23.976 (24000/1001) FPS Color space : YUV Chroma subsampling : 4:2:0 Bit depth : 8 bits Scan type : Progressive Bits/(Pixel*Frame) : 0.135 Stream size : 160 MiB (55%) Writing library : x264 core 152 r2851 ba24899 Encoding settings : cabac=1 / ref=3 / deblock=1:1:1 / analyse=0x3:0x133 / me=umh / subme=9 / psy=1 / psy_rd=1.00:0.00 / mixed_ref=1 / me_range=32 / chroma_me=1 / trellis=2 / 8x8dct=1 / cqm=0 / deadzone=21,11 / fast_pskip=1 / chroma_qp_offset=-2 / threads=13 / lookahead_threads=1 / sliced_threads=0 / nr=0 / decimate=1 / interlaced=0 / bluray_compat=0 / constrained_intra=0 / bframes=3 / b_pyramid=2 / b_adapt=2 / b_bias=0 / direct=3 / weightb=1 / open_gop=0 / weightp=2 / keyint=250 / keyint_min=25 / scenecut=40 / intra_refresh=0 / rc_lookahead=48 / rc=crf / mbtree=1 / crf=16.0 / qcomp=0.60 / qpmin=0 / qpmax=69 / qpstep=4 / ip_ratio=1.40 / aq=3:1.00 Default : Yes Forced : No Color range : Limited Matrix coefficients : BT.709 Audio #1 ID : 2 Format : AC-3 Format/Info : Audio Coding 3 Commercial name : Dolby Digital Codec ID : A_AC3 Duration : 23 min 47 s Bit rate mode : Constant Bit rate : 384 kb/s Channel(s) : 2 channels Channel layout : L R Sampling rate : 48.0 kHz Frame rate : 31.250 FPS (1536 SPF) Bit depth : 16 bits Compression mode : Lossy Stream size : 65.3 MiB (22%) Language : German Service kind : Complete Main Default : Yes Forced : No Audio #2 ID : 3 Format : AC-3 Format/Info : Audio Coding 3 Commercial name : Dolby Digital Codec ID : A_AC3 Duration : 23 min 47 s Bit rate mode : Constant Bit rate : 384 kb/s Channel(s) : 2 channels Channel layout : L R Sampling rate : 48.0 kHz Frame rate : 31.250 FPS (1536 SPF) Bit depth : 16 bits Compression mode : Lossy Stream size : 65.3 MiB (22%) Language : Japanese Service kind : Complete Main Default : No Forced : No Text ID : 4 Format : PGS Muxing mode : zlib Codec ID : S_HDMV/PGS Codec ID/Info : Picture based subtitle format used on BDs/HD-DVDs Duration : 23 min 40 s Bit rate : 28.2 kb/s Count of elements : 574 Stream size : 4.78 MiB (2%) Language : German Default : No Forced : No Menu 00:00:00.000 : en:00:00:00.000 00:04:10.000 : en:00:04:10.000 00:11:55.048 : en:00:11:55.048 00:22:10.996 : en:00:22:10.996 00:23:41.003 : en:00:23:41.003 ​
    Code:
    General Complete name : UQ.Holder.Ep01.German.AC3.DL.720p.BluRay.x264-AST4u.mkv Format : Matroska Format version : Version 4 File size : 590 MiB Duration : 23 min 47 s Overall bit rate : 3 467 kb/s Encoded date : UTC 2019-02-23 20:26:10 Writing application : mkvmerge v15.0.0 ('Duel with the Devil') 64-bit Writing library : libebml v1.3.5 + libmatroska v1.4.5 Video ID : 1 Format : AVC Format/Info : Advanced Video Codec Format profile : High@L4.1 Format settings : CABAC / 4 Ref Frames Format settings, CABAC : Yes Format settings, RefFrames : 4 frames Codec ID : V_MPEG4/ISO/AVC Duration : 23 min 47 s Bit rate : 2 561 kb/s Width : 1 280 pixels Height : 720 pixels Display aspect ratio : 16:9 Frame rate mode : Constant Frame rate : 23.976 (24000/1001) FPS Color space : YUV Chroma subsampling : 4:2:0 Bit depth : 8 bits Scan type : Progressive Bits/(Pixel*Frame) : 0.116 Stream size : 436 MiB (74%) Writing library : x264 core 152 r2851 ba24899 Encoding settings : cabac=1 / ref=3 / deblock=1:1:1 / analyse=0x3:0x133 / me=umh / subme=9 / psy=1 / psy_rd=1.00:0.00 / mixed_ref=1 / me_range=32 / chroma_me=1 / trellis=2 / 8x8dct=1 / cqm=0 / deadzone=21,11 / fast_pskip=1 / chroma_qp_offset=-2 / threads=22 / lookahead_threads=1 / sliced_threads=0 / nr=0 / decimate=1 / interlaced=0 / bluray_compat=0 / constrained_intra=0 / bframes=3 / b_pyramid=2 / b_adapt=2 / b_bias=0 / direct=3 / weightb=1 / open_gop=0 / weightp=2 / keyint=250 / keyint_min=25 / scenecut=40 / intra_refresh=0 / rc_lookahead=48 / rc=crf / mbtree=1 / crf=16.0 / qcomp=0.60 / qpmin=0 / qpmax=69 / qpstep=4 / ip_ratio=1.40 / aq=3:1.00 Default : Yes Forced : No Color range : Limited Matrix coefficients : BT.709 Audio #1 ID : 2 Format : AC-3 Format/Info : Audio Coding 3 Commercial name : Dolby Digital Codec ID : A_AC3 Duration : 23 min 47 s Bit rate mode : Constant Bit rate : 448 kb/s Channel(s) : 2 channels Channel layout : L R Sampling rate : 48.0 kHz Frame rate : 31.250 FPS (1536 SPF) Bit depth : 16 bits Compression mode : Lossy Stream size : 76.2 MiB (13%) Language : German Service kind : Complete Main Default : Yes Forced : No Audio #2 ID : 3 Format : AC-3 Format/Info : Audio Coding 3 Commercial name : Dolby Digital Codec ID : A_AC3 Duration : 23 min 47 s Bit rate mode : Constant Bit rate : 448 kb/s Channel(s) : 2 channels Channel layout : L R Sampling rate : 48.0 kHz Frame rate : 31.250 FPS (1536 SPF) Bit depth : 16 bits Compression mode : Lossy Stream size : 76.2 MiB (13%) Language : Japanese Service kind : Complete Main Default : No Forced : No Text ID : 4 Format : PGS Muxing mode : zlib Codec ID : S_HDMV/PGS Codec ID/Info : Picture based subtitle format used on BDs/HD-DVDs Duration : 23 min 40 s Bit rate : 28.2 kb/s Count of elements : 574 Stream size : 4.78 MiB (1%) Language : German Default : No Forced : No Menu 00:00:00.000 : en:00:00:00.000 00:04:10.000 : en:00:04:10.000 00:11:55.048 : en:00:11:55.048 00:22:10.996 : en:00:22:10.996 00:23:41.003 : en:00:23:41.003 ​
    Code:
    General Complete name : UQ.Holder.Ep01.German.AC3.DL.1080p.BluRay.x264-AST4u.mkv Format : Matroska Format version : Version 4 File size : 1.15 GiB Duration : 23 min 47 s Overall bit rate : 6 939 kb/s Encoded date : UTC 2019-02-23 18:51:37 Writing application : mkvmerge v15.0.0 ('Duel with the Devil') 64-bit Writing library : libebml v1.3.5 + libmatroska v1.4.5 Video ID : 1 Format : AVC Format/Info : Advanced Video Codec Format profile : High@L4.1 Format settings : CABAC / 4 Ref Frames Format settings, CABAC : Yes Format settings, RefFrames : 4 frames Codec ID : V_MPEG4/ISO/AVC Duration : 23 min 47 s Bit rate : 6 033 kb/s Width : 1 920 pixels Height : 1 080 pixels Display aspect ratio : 16:9 Frame rate mode : Constant Frame rate : 23.976 (24000/1001) FPS Color space : YUV Chroma subsampling : 4:2:0 Bit depth : 8 bits Scan type : Progressive Bits/(Pixel*Frame) : 0.121 Stream size : 1.00 GiB (87%) Writing library : x264 core 152 r2851 ba24899 Encoding settings : cabac=1 / ref=3 / deblock=1:1:1 / analyse=0x3:0x133 / me=umh / subme=9 / psy=1 / psy_rd=1.00:0.00 / mixed_ref=1 / me_range=32 / chroma_me=1 / trellis=2 / 8x8dct=1 / cqm=0 / deadzone=21,11 / fast_pskip=1 / chroma_qp_offset=-2 / threads=24 / lookahead_threads=2 / sliced_threads=0 / nr=0 / decimate=1 / interlaced=0 / bluray_compat=0 / constrained_intra=0 / bframes=3 / b_pyramid=2 / b_adapt=2 / b_bias=0 / direct=3 / weightb=1 / open_gop=0 / weightp=2 / keyint=250 / keyint_min=25 / scenecut=40 / intra_refresh=0 / rc_lookahead=48 / rc=crf / mbtree=1 / crf=16.0 / qcomp=0.60 / qpmin=0 / qpmax=69 / qpstep=4 / ip_ratio=1.40 / aq=3:1.00 Default : Yes Forced : No Color range : Limited Matrix coefficients : BT.709 Audio #1 ID : 2 Format : AC-3 Format/Info : Audio Coding 3 Commercial name : Dolby Digital Codec ID : A_AC3 Duration : 23 min 47 s Bit rate mode : Constant Bit rate : 448 kb/s Channel(s) : 2 channels Channel layout : L R Sampling rate : 48.0 kHz Frame rate : 31.250 FPS (1536 SPF) Bit depth : 16 bits Compression mode : Lossy Stream size : 76.2 MiB (6%) Language : German Service kind : Complete Main Default : Yes Forced : No Audio #2 ID : 3 Format : AC-3 Format/Info : Audio Coding 3 Commercial name : Dolby Digital Codec ID : A_AC3 Duration : 23 min 47 s Bit rate mode : Constant Bit rate : 448 kb/s Channel(s) : 2 channels Channel layout : L R Sampling rate : 48.0 kHz Frame rate : 31.250 FPS (1536 SPF) Bit depth : 16 bits Compression mode : Lossy Stream size : 76.2 MiB (6%) Language : Japanese Service kind : Complete Main Default : No Forced : No Text ID : 4 Format : PGS Muxing mode : zlib Codec ID : S_HDMV/PGS Codec ID/Info : Picture based subtitle format used on BDs/HD-DVDs Duration : 23 min 40 s Bit rate : 28.2 kb/s Count of elements : 574 Stream size : 4.78 MiB (0%) Language : German Default : No Forced : No Menu 00:00:00.000 : en:00:00:00.000 00:04:10.000 : en:00:04:10.000 00:11:55.048 : en:00:11:55.048 00:22:10.996 : en:00:22:10.996 00:23:41.003 : en:00:23:41.003 ​
    Code:
    General Complete name : UQ.Holder.Ep01.German.DTS.DL.1080p.BluRay.x264-AST4u.mkv Format : Matroska Format version : Version 4 File size : 1.36 GiB Duration : 23 min 47 s Overall bit rate mode : Variable Overall bit rate : 8 189 kb/s Encoded date : UTC 2019-02-23 21:40:02 Writing application : mkvmerge v19.0.0 ('Brave Captain') 64-bit Writing library : libebml v1.3.5 + libmatroska v1.4.8 Video ID : 1 Format : AVC Format/Info : Advanced Video Codec Format profile : High@L4.1 Format settings : CABAC / 4 Ref Frames Format settings, CABAC : Yes Format settings, RefFrames : 4 frames Codec ID : V_MPEG4/ISO/AVC Duration : 23 min 47 s Bit rate : 6 033 kb/s Width : 1 920 pixels Height : 1 080 pixels Display aspect ratio : 16:9 Frame rate mode : Constant Frame rate : 23.976 (24000/1001) FPS Color space : YUV Chroma subsampling : 4:2:0 Bit depth : 8 bits Scan type : Progressive Bits/(Pixel*Frame) : 0.121 Stream size : 1.00 GiB (74%) Writing library : x264 core 152 r2851 ba24899 Encoding settings : cabac=1 / ref=3 / deblock=1:1:1 / analyse=0x3:0x133 / me=umh / subme=9 / psy=1 / psy_rd=1.00:0.00 / mixed_ref=1 / me_range=32 / chroma_me=1 / trellis=2 / 8x8dct=1 / cqm=0 / deadzone=21,11 / fast_pskip=1 / chroma_qp_offset=-2 / threads=24 / lookahead_threads=2 / sliced_threads=0 / nr=0 / decimate=1 / interlaced=0 / bluray_compat=0 / constrained_intra=0 / bframes=3 / b_pyramid=2 / b_adapt=2 / b_bias=0 / direct=3 / weightb=1 / open_gop=0 / weightp=2 / keyint=250 / keyint_min=25 / scenecut=40 / intra_refresh=0 / rc_lookahead=48 / rc=crf / mbtree=1 / crf=16.0 / qcomp=0.60 / qpmin=0 / qpmax=69 / qpstep=4 / ip_ratio=1.40 / aq=3:1.00 Default : Yes Forced : No Color range : Limited Matrix coefficients : BT.709 Audio #1 ID : 2 Format : DTS XLL Format/Info : Digital Theater Systems Commercial name : DTS-HD Master Audio Codec ID : A_DTS Duration : 23 min 47 s Bit rate mode : Variable Bit rate : 1 077 kb/s Channel(s) : 2 channels Channel layout : L R Sampling rate : 48.0 kHz Frame rate : 93.750 FPS (512 SPF) Bit depth : 16 bits Compression mode : Lossless Stream size : 183 MiB (13%) Language : German Default : Yes Forced : No Audio #2 ID : 3 Format : DTS XLL Format/Info : Digital Theater Systems Commercial name : DTS-HD Master Audio Codec ID : A_DTS Duration : 23 min 47 s Bit rate mode : Variable Bit rate : 1 067 kb/s Channel(s) : 2 channels Channel layout : L R Sampling rate : 48.0 kHz Frame rate : 93.750 FPS (512 SPF) Bit depth : 16 bits Compression mode : Lossless Stream size : 181 MiB (13%) Language : Japanese Default : No Forced : No Text ID : 4 Format : PGS Muxing mode : zlib Codec ID : S_HDMV/PGS Codec ID/Info : Picture based subtitle format used on BDs/HD-DVDs Duration : 23 min 40 s Bit rate : 28.2 kb/s Count of elements : 574 Stream size : 4.78 MiB (0%) Language : German Default : No Forced : No Menu 00:00:00.000 : en:00:00:00.000 00:04:10.000 : en:00:04:10.000 00:11:55.048 : en:00:11:55.048 00:22:10.996 : en:00:22:10.996 00:23:41.003 : en:00:23:41.003 ​

    Anmerkung:
    Dies ist ein Original BluRay Encode.

    408p:[​IMG]720p:[​IMG]1080p:[​IMG]1080p DTS:[​IMG]

    Geschützter Bereich
    Registriere dich oder logge dich ein, um den Inhalt sehen zu können
     
    soares23, risobp, quasyboy und 33 anderen gefällt das.

Diese Seite empfehlen