1. Die erweiterte Suche funktioniert wieder. Die LiveSearch ist vorübergehend deaktiviert

Wir verwenden Cookies, um deinen Aufenthalt auf Animes.so möglichst angenehm gestalten zu können. Mehr erfahren

Urusei Yatsura + OVA [Laufend][Jap-Dub][Ger-Sub][480p/540p/720p][DVDRip/BluRay] - FA

Dieses Thema im Forum "Serien (GerSub)" wurde erstellt von Yin, 21. Juli 2015.

  1. Yin

    Yin Offizieller Bot von Animes.so Animes.so Staff

    Registriert seit:
    9. Aug. 2017
    Beiträge:
    1
    Zustimmungen:
    3.838
    Urusei Yatsura
    うる星やつら
    Those Obnoxious Aliens
    Lamu, Urusei Yatsura TV
    Lam, the Invader Girl
    Lum the Invader Girl
    Alien Musibat

    [​IMG]

    Kurzbeschreibung:
    Spieldauer: ~ 26min
    Genre: Komödie
    Nebengenres: Action, Drama, Komödie, Männlich, Romanze, Sci-Fi
    Jahr: 1981
    Sprache: [​IMG] Japanisch
    Untertitel: [​IMG] Deutsch
    Größe pro Folge: ~ 200-400MB
    Episodenanzahl: 40/195 + 1/1
    Format: AVI, MP4
    Auflösung: 480p (4:3), 540p (4:3), 720p (4:3),
    Videocodec: XviD, x264 (AVC)
    Audiocodec: MP3, AAC
    Releasegruppe: Freebooter-Anime
    Hoster: [​IMG] Uploaded, [​IMG] Share-Online

    Code:
    Format                                   : AVI
    Format/Info                              : Audio Video Interleave
    File size                                : 250 MiB
    Duration                                 : 25mn 34s
    Overall bit rate                         : 1 367 Kbps
    Writing application                      : VirtualDubMod 1.5.10.2 (build 2542/release)
    Writing library                          : VirtualDubMod build 2542/release
    
    Video
    ID                                       : 0
    Format                                   : MPEG-4 Visual
    Format profile                           : Advanced Simple@L5
    Format settings, BVOP                    : 3
    Format settings, QPel                    : Yes
    Format settings, GMC                     : No warppoints
    Format settings, Matrix                  : Default (H.263)
    Muxing mode                              : Packed bitstream
    Codec ID                                 : XVID
    Codec ID/Hint                            : XviD
    Duration                                 : 25mn 34s
    Bit rate                                 : 1 229 Kbps
    Width                                    : 640 pixels
    Height                                   : 480 pixels
    Display aspect ratio                     : 4:3
    Frame rate                               : 25.000 fps
    Color space                              : YUV
    Chroma subsampling                       : 4:2:0
    Bit depth                                : 8 bits
    Scan type                                : Progressive
    Compression mode                         : Lossy
    Bits/(Pixel*Frame)                       : 0.160
    Stream size                              : 225 MiB (90%)
    Writing library                          : XviD 1.2.1 (UTC 2008-12-04)
    
    Audio
    ID                                       : 1
    Format                                   : MPEG Audio
    Format version                           : Version 1
    Format profile                           : Layer 3
    Mode                                     : Joint stereo
    Codec ID                                 : 55
    Codec ID/Hint                            : MP3
    Duration                                 : 25mn 34s
    Bit rate mode                            : Constant
    Bit rate                                 : 128 Kbps
    Channel count                            : 2 channels
    Sampling rate                            : 44.1 KHz
    Compression mode                         : Lossy
    Stream size                              : 23.4 MiB (9%)
    Alignment                                : Aligned on interleaves
    Interleave, duration                     : 40 ms (1.00 video frame)
    Interleave, preload duration             : 522 ms
    Code:
    Format                                   : MPEG-4
    Format profile                           : Base Media
    Codec ID                                 : isom
    File size                                : 200 MiB
    Duration                                 : 25mn 34s
    Overall bit rate mode                    : Variable
    Overall bit rate                         : 1 096 Kbps
    Encoded date                             : UTC 2011-11-25 01:33:21
    Tagged date                              : UTC 2011-11-25 01:33:21
    
    Video
    ID                                       : 1
    Format                                   : AVC
    Format/Info                              : Advanced Video Codec
    Format profile                           : High@L4.1
    Format settings, CABAC                   : Yes
    Format settings, ReFrames                : 16 frames
    Codec ID                                 : avc1
    Codec ID/Info                            : Advanced Video Coding
    Duration                                 : 25mn 34s
    Bit rate                                 : 964 Kbps
    Maximum bit rate                         : 3 501 Kbps
    Width                                    : 720 pixels
    Height                                   : 540 pixels
    Display aspect ratio                     : 4:3
    Frame rate mode                          : Constant
    Frame rate                               : 25.000 fps
    Color space                              : YUV
    Chroma subsampling                       : 4:2:0
    Bit depth                                : 8 bits
    Scan type                                : Progressive
    Bits/(Pixel*Frame)                       : 0.099
    Stream size                              : 176 MiB (88%)
    Writing library                          : x264 core 116 r2074 2641b9e
    Encoding settings                        : cabac=1 / ref=16 / deblock=1:1:1 / analyse=0x3:0x133 / me=umh / subme=9 / psy=1 / psy_rd=0.40:0.00 / mixed_ref=1 / me_range=16 / chroma_me=1 / trellis=2 / 8x8dct=1 / cqm=0 / deadzone=21,11 / fast_pskip=1 / chroma_qp_offset=-2 / threads=12 / sliced_threads=0 / nr=0 / decimate=1 / interlaced=0 / bluray_compat=0 / constrained_intra=0 / bframes=5 / b_pyramid=2 / b_adapt=2 / b_bias=0 / direct=3 / weightb=1 / open_gop=0 / weightp=2 / keyint=250 / keyint_min=25 / scenecut=40 / intra_refresh=0 / rc_lookahead=60 / rc=2pass / mbtree=1 / bitrate=964 / ratetol=1.0 / qcomp=0.60 / qpmin=10 / qpmax=51 / qpstep=4 / cplxblur=20.0 / qblur=0.5 / vbv_maxrate=24000 / vbv_bufsize=24000 / nal_hrd=none / ip_ratio=1.40 / aq=1:0.60
    Encoded date                             : UTC 2011-11-25 01:33:21
    Tagged date                              : UTC 2011-11-25 01:33:23
    
    Audio
    ID                                       : 2
    Format                                   : AAC
    Format/Info                              : Advanced Audio Codec
    Format profile                           : LC
    Codec ID                                 : 40
    Duration                                 : 25mn 34s
    Bit rate mode                            : Variable
    Bit rate                                 : 128 Kbps
    Maximum bit rate                         : 149 Kbps
    Channel count                            : 2 channels
    Channel positions                        : Front: L R
    Sampling rate                            : 44.1 KHz
    Compression mode                         : Lossy
    Stream size                              : 23.4 MiB (12%)
    Encoded date                             : UTC 2011-11-25 01:33:23
    Tagged date                              : UTC 2011-11-25 01:33:23
    
    Code:
    Format                                   : AVI
    Format/Info                              : Audio Video Interleave
    File size                                : 250 MiB
    Duration                                 : 25mn 38s
    Overall bit rate                         : 1 364 Kbps
    Writing application                      : VirtualDubMod 1.5.4.1 (build 2066/release)
    Writing library                          : VirtualDubMod build 2066/release
    
    Video
    ID                                       : 0
    Format                                   : MPEG-4 Visual
    Format profile                           : Advanced Simple@L5
    Format settings, BVOP                    : 3
    Format settings, QPel                    : Yes
    Format settings, GMC                     : No warppoints
    Format settings, Matrix                  : Default (H.263)
    Muxing mode                              : Packed bitstream
    Codec ID                                 : XVID
    Codec ID/Hint                            : XviD
    Duration                                 : 25mn 38s
    Bit rate                                 : 1 226 Kbps
    Width                                    : 640 pixels
    Height                                   : 480 pixels
    Display aspect ratio                     : 4:3
    Frame rate                               : 23.976 fps
    Color space                              : YUV
    Chroma subsampling                       : 4:2:0
    Bit depth                                : 8 bits
    Scan type                                : Progressive
    Compression mode                         : Lossy
    Bits/(Pixel*Frame)                       : 0.166
    Stream size                              : 225 MiB (90%)
    Writing library                          : XviD 1.2.1 (UTC 2008-12-04)
    
    Audio
    ID                                       : 1
    Format                                   : MPEG Audio
    Format version                           : Version 1
    Format profile                           : Layer 3
    Mode                                     : Joint stereo
    Mode extension                           : MS Stereo
    Codec ID                                 : 55
    Codec ID/Hint                            : MP3
    Duration                                 : 25mn 38s
    Bit rate mode                            : Constant
    Bit rate                                 : 128 Kbps
    Channel count                            : 2 channels
    Sampling rate                            : 44.1 KHz
    Compression mode                         : Lossy
    Stream size                              : 23.5 MiB (9%)
    Alignment                                : Split accross interleaves
    Interleave, duration                     : 42 ms (1.00 video frame)
    Interleave, preload duration             : 500 ms
    Writing library                          : LAME3.90.3
    Code:
    Format                                   : MPEG-4
    Format profile                           : Base Media
    Codec ID                                 : isom
    File size                                : 251 MiB
    Duration                                 : 25mn 38s
    Overall bit rate mode                    : Variable
    Overall bit rate                         : 1 366 Kbps
    Encoded date                             : UTC 2014-02-09 22:57:58
    Tagged date                              : UTC 2014-02-09 22:57:58
    
    Video
    ID                                       : 1
    Format                                   : AVC
    Format/Info                              : Advanced Video Codec
    Format profile                           : High@L4.1
    Format settings, CABAC                   : Yes
    Format settings, ReFrames                : 10 frames
    Codec ID                                 : avc1
    Codec ID/Info                            : Advanced Video Coding
    Duration                                 : 25mn 38s
    Bit rate                                 : 1 234 Kbps
    Maximum bit rate                         : 5 090 Kbps
    Width                                    : 960 pixels
    Height                                   : 720 pixels
    Display aspect ratio                     : 4:3
    Frame rate mode                          : Constant
    Frame rate                               : 23.976 fps
    Color space                              : YUV
    Chroma subsampling                       : 4:2:0
    Bit depth                                : 8 bits
    Scan type                                : Progressive
    Bits/(Pixel*Frame)                       : 0.074
    Stream size                              : 226 MiB (90%)
    Writing library                          : x264 core 116 r2074 2641b9e
    Encoding settings                        : cabac=1 / ref=10 / deblock=1:1:1 / analyse=0x3:0x113 / me=umh / subme=8 / psy=1 / psy_rd=0.40:0.00 / mixed_ref=1 / me_range=16 / chroma_me=1 / trellis=1 / 8x8dct=1 / cqm=0 / deadzone=21,11 / fast_pskip=1 / chroma_qp_offset=-2 / threads=12 / sliced_threads=0 / nr=0 / decimate=1 / interlaced=0 / bluray_compat=0 / constrained_intra=0 / bframes=5 / b_pyramid=2 / b_adapt=2 / b_bias=0 / direct=3 / weightb=1 / open_gop=0 / weightp=2 / keyint=250 / keyint_min=23 / scenecut=40 / intra_refresh=0 / rc_lookahead=50 / rc=2pass / mbtree=1 / bitrate=1234 / ratetol=1.0 / qcomp=0.60 / qpmin=10 / qpmax=51 / qpstep=4 / cplxblur=20.0 / qblur=0.5 / vbv_maxrate=24000 / vbv_bufsize=24000 / nal_hrd=none / ip_ratio=1.40 / aq=1:0.60
    Encoded date                             : UTC 2014-02-09 22:57:58
    Tagged date                              : UTC 2014-02-09 22:58:01
    
    Audio
    ID                                       : 2
    Format                                   : AAC
    Format/Info                              : Advanced Audio Codec
    Format profile                           : LC
    Codec ID                                 : 40
    Duration                                 : 25mn 38s
    Bit rate mode                            : Variable
    Bit rate                                 : 128 Kbps
    Maximum bit rate                         : 138 Kbps
    Channel count                            : 2 channels
    Channel positions                        : Front: L R
    Sampling rate                            : 48.0 KHz
    Compression mode                         : Lossy
    Stream size                              : 23.5 MiB (9%)
    Encoded date                             : UTC 2014-02-09 22:58:00
    Tagged date                              : UTC 2014-02-09 22:58:01

    [​IMG]
    Onlinestatus: [​IMG]
    Geschützter Bereich
    Registriere dich oder logge dich ein, um den Inhalt sehen zu können
    Animes.so Release Manager
     
    Lasted edited by : 24. Okt. 2017
  2. Yin

    Yin Offizieller Bot von Animes.so Animes.so Staff

    Registriert seit:
    9. Aug. 2017
    Beiträge:
    1
    Zustimmungen:
    3.838