Wir verwenden Cookies, um deinen Aufenthalt auf Animes.so möglichst angenehm gestalten zu können. Mehr erfahren

Vampire Hunter D: Bloodlust [Ger-Eng-Dub][Ger-Eng-Sub][AC-3|DTS-HD][404p|720p|1080p][BluRay] - AST4u

Dieses Thema im Forum "Download Archiv" wurde erstellt von Ta@, 3. Apr. 2019.

  1. Ta@

    Ta@ Erfahrener Otaku Otaku König

    Registriert seit:
    7. Juli 2016
    Beiträge:
    219
    Zustimmungen:
    18.438
    Vampire Hunter D: Bloodlust


    [​IMG]
    [​IMG]

    In einer fernen und düsteren Zukunft stehen Vampire, die einst die Welt in Angst und Schrecken versetzten, kurz vor Ihrer Auslöschung. Auch auf den Kopf von Baron Meier Link, einem der letzten großen Vampire, ist eine hohe Belohnung ausgesetzt. Er hat die Tochter einer wohlhabenden Familie entführt. Der geheimnisvolle Kopfgeldjäger D, ein sogenannter Dunpeal (halb Mensch, halb Vampir), nimmt die Jagd auf. Jedoch er ist nicht allein: auch ein Vampirjäger-Team mit einem ganzen Arsenal an modernsten Waffen ist ihm auf der Spur. Ein gnadenloser Wettlauf gegen die Zeit und über die gothisch-romantische Landschaft beginnt. Noch weiß keiner von der dunklen Macht, die im Geheimen ihre Schritte manipuliert, und sie in eine schreckliche Falle lockt. Mit der Dunkelheit beginnt die Jagd!

    Folgen: 1/1
    Größe pro Folge: ~1891 MB/~7502 MB/~17677 MB/~20298 MB
    Folgendauer: ~102 Min
    Releaser: AST4u
    Art: Lizenzrelease
    Sprache: Englisch, Deutsch
    Untertitel: Englisch, Deutsch
    Jahr: 2001
    Genres: Action, Drama, Fantasy, Horror, Romanze, Scifi, Übermäßige Gewaltdarstellung
    Auflösung: 720x404/1280x720/1920x1080
    Format: MKV
    Quelle: BluRay
    Videocodec: x264
    Farbtiefe: 8Bit
    Audiocodec: AC3/DTS
    Publisher: WVG Medien GmbH
    Hoster: Share-Online

    [​IMG]
    Code:
    General Complete name : Vampire.Hunter.D.Bloodlust.Movie.German.AC3.DL.BD-Rip.x264-AST4u.mkv Format : Matroska Format version : Version 4 File size : 1.85 GiB Duration : 1 h 42 min Overall bit rate : 2 592 kb/s Encoded date : UTC 2019-04-03 01:50:20 Writing application : mkvmerge v15.0.0 ('Duel with the Devil') 64-bit Writing library : libebml v1.3.5 + libmatroska v1.4.5 Video ID : 1 Format : AVC Format/Info : Advanced Video Codec Format profile : High@L4.1 Format settings : CABAC / 4 Ref Frames Format settings, CABAC : Yes Format settings, RefFrames : 4 frames Codec ID : V_MPEG4/ISO/AVC Duration : 1 h 42 min Bit rate : 1 788 kb/s Width : 720 pixels Height : 404 pixels Display aspect ratio : 16:9 Frame rate mode : Constant Frame rate : 23.976 (24000/1001) FPS Color space : YUV Chroma subsampling : 4:2:0 Bit depth : 8 bits Scan type : Progressive Bits/(Pixel*Frame) : 0.256 Stream size : 1.27 GiB (69%) Writing library : x264 core 152 r2851 ba24899 Encoding settings : cabac=1 / ref=3 / deblock=1:1:1 / analyse=0x3:0x133 / me=umh / subme=9 / psy=1 / psy_rd=1.00:0.00 / mixed_ref=1 / me_range=32 / chroma_me=1 / trellis=2 / 8x8dct=1 / cqm=0 / deadzone=21,11 / fast_pskip=1 / chroma_qp_offset=-2 / threads=13 / lookahead_threads=1 / sliced_threads=0 / nr=0 / decimate=1 / interlaced=0 / bluray_compat=0 / constrained_intra=0 / bframes=3 / b_pyramid=2 / b_adapt=2 / b_bias=0 / direct=3 / weightb=1 / open_gop=0 / weightp=2 / keyint=250 / keyint_min=25 / scenecut=40 / intra_refresh=0 / rc_lookahead=48 / rc=crf / mbtree=1 / crf=16.0 / qcomp=0.60 / qpmin=0 / qpmax=69 / qpstep=4 / ip_ratio=1.40 / aq=3:1.00 Default : Yes Forced : No Color range : Limited Matrix coefficients : BT.709 Audio #1 ID : 2 Format : AC-3 Format/Info : Audio Coding 3 Commercial name : Dolby Digital Codec ID : A_AC3 Duration : 1 h 42 min Bit rate mode : Constant Bit rate : 384 kb/s Channel(s) : 2 channels Channel layout : L R Sampling rate : 48.0 kHz Frame rate : 31.250 FPS (1536 SPF) Bit depth : 16 bits Compression mode : Lossy Stream size : 280 MiB (15%) Language : German Service kind : Complete Main Default : Yes Forced : No Audio #2 ID : 3 Format : AC-3 Format/Info : Audio Coding 3 Commercial name : Dolby Digital Codec ID : A_AC3 Duration : 1 h 42 min Bit rate mode : Constant Bit rate : 384 kb/s Channel(s) : 2 channels Channel layout : L R Sampling rate : 48.0 kHz Frame rate : 31.250 FPS (1536 SPF) Bit depth : 16 bits Compression mode : Lossy Stream size : 280 MiB (15%) Language : English Service kind : Complete Main Default : No Forced : No Text #1 ID : 4 Format : PGS Muxing mode : zlib Codec ID : S_HDMV/PGS Codec ID/Info : Picture based subtitle format used on BDs/HD-DVDs Duration : 1 h 36 min Bit rate : 37.0 kb/s Count of elements : 1627 Stream size : 25.6 MiB (1%) Language : German Default : No Forced : No Text #2 ID : 5 Format : PGS Muxing mode : zlib Codec ID : S_HDMV/PGS Codec ID/Info : Picture based subtitle format used on BDs/HD-DVDs Duration : 1 h 36 min Bit rate : 33.2 kb/s Count of elements : 2398 Stream size : 22.9 MiB (1%) Language : English Default : No Forced : No Text #3 ID : 6 Format : PGS Muxing mode : zlib Codec ID : S_HDMV/PGS Codec ID/Info : Picture based subtitle format used on BDs/HD-DVDs Duration : 5 s 422 ms Bit rate : 41.4 kb/s Count of elements : 3 Stream size : 27.4 KiB (0%) Language : German Default : No Forced : No Menu 00:00:00.000 : en:00:00:00.000 00:07:05.467 : en:00:07:05.467 00:15:50.658 : en:00:15:50.658 00:23:46.884 : en:00:23:46.884 00:33:46.107 : en:00:33:46.107 00:41:56.889 : en:00:41:56.889 00:51:32.923 : en:00:51:32.923 00:59:54.216 : en:00:59:54.216 01:08:21.097 : en:01:08:21.097 01:16:31.253 : en:01:16:31.253 01:25:57.235 : en:01:25:57.235 01:34:29.622 : en:01:34:29.622 ​
    Code:
    General Complete name : Vampire.Hunter.D.Bloodlust.Movie.German.AC3.DL.720p.BluRay.x264-AST4u.mkv Format : Matroska Format version : Version 4 File size : 7.33 GiB Duration : 1 h 42 min Overall bit rate : 10.3 Mb/s Encoded date : UTC 2019-04-03 01:21:20 Writing application : mkvmerge v15.0.0 ('Duel with the Devil') 64-bit Writing library : libebml v1.3.5 + libmatroska v1.4.5 Video ID : 1 Format : AVC Format/Info : Advanced Video Codec Format profile : High@L4.1 Format settings : CABAC / 4 Ref Frames Format settings, CABAC : Yes Format settings, RefFrames : 4 frames Codec ID : V_MPEG4/ISO/AVC Duration : 1 h 42 min Bit rate : 9 350 kb/s Width : 1 280 pixels Height : 720 pixels Display aspect ratio : 16:9 Frame rate mode : Constant Frame rate : 23.976 (24000/1001) FPS Color space : YUV Chroma subsampling : 4:2:0 Bit depth : 8 bits Scan type : Progressive Bits/(Pixel*Frame) : 0.423 Stream size : 6.66 GiB (91%) Writing library : x264 core 152 r2851 ba24899 Encoding settings : cabac=1 / ref=3 / deblock=1:1:1 / analyse=0x3:0x133 / me=umh / subme=9 / psy=1 / psy_rd=1.00:0.00 / mixed_ref=1 / me_range=32 / chroma_me=1 / trellis=2 / 8x8dct=1 / cqm=0 / deadzone=21,11 / fast_pskip=1 / chroma_qp_offset=-2 / threads=22 / lookahead_threads=1 / sliced_threads=0 / nr=0 / decimate=1 / interlaced=0 / bluray_compat=0 / constrained_intra=0 / bframes=3 / b_pyramid=2 / b_adapt=2 / b_bias=0 / direct=3 / weightb=1 / open_gop=0 / weightp=2 / keyint=250 / keyint_min=25 / scenecut=40 / intra_refresh=0 / rc_lookahead=48 / rc=crf / mbtree=1 / crf=16.0 / qcomp=0.60 / qpmin=0 / qpmax=69 / qpstep=4 / ip_ratio=1.40 / aq=3:1.00 Default : Yes Forced : No Color range : Limited Matrix coefficients : BT.709 Audio #1 ID : 2 Format : AC-3 Format/Info : Audio Coding 3 Commercial name : Dolby Digital Codec ID : A_AC3 Duration : 1 h 42 min Bit rate mode : Constant Bit rate : 448 kb/s Channel(s) : 6 channels Channel layout : L R C LFE Ls Rs Sampling rate : 48.0 kHz Frame rate : 31.250 FPS (1536 SPF) Bit depth : 16 bits Compression mode : Lossy Stream size : 327 MiB (4%) Language : German Service kind : Complete Main Default : Yes Forced : No Audio #2 ID : 3 Format : AC-3 Format/Info : Audio Coding 3 Commercial name : Dolby Digital Codec ID : A_AC3 Duration : 1 h 42 min Bit rate mode : Constant Bit rate : 448 kb/s Channel(s) : 6 channels Channel layout : L R C LFE Ls Rs Sampling rate : 48.0 kHz Frame rate : 31.250 FPS (1536 SPF) Bit depth : 16 bits Compression mode : Lossy Stream size : 327 MiB (4%) Language : English Service kind : Complete Main Default : No Forced : No Text #1 ID : 4 Format : PGS Muxing mode : zlib Codec ID : S_HDMV/PGS Codec ID/Info : Picture based subtitle format used on BDs/HD-DVDs Duration : 1 h 36 min Bit rate : 37.0 kb/s Count of elements : 1627 Stream size : 25.6 MiB (0%) Language : German Default : No Forced : No Text #2 ID : 5 Format : PGS Muxing mode : zlib Codec ID : S_HDMV/PGS Codec ID/Info : Picture based subtitle format used on BDs/HD-DVDs Duration : 1 h 36 min Bit rate : 33.2 kb/s Count of elements : 2398 Stream size : 22.9 MiB (0%) Language : English Default : No Forced : No Text #3 ID : 6 Format : PGS Muxing mode : zlib Codec ID : S_HDMV/PGS Codec ID/Info : Picture based subtitle format used on BDs/HD-DVDs Duration : 5 s 422 ms Bit rate : 41.4 kb/s Count of elements : 3 Stream size : 27.4 KiB (0%) Language : German Default : No Forced : No Menu 00:00:00.000 : en:00:00:00.000 00:07:05.467 : en:00:07:05.467 00:15:50.658 : en:00:15:50.658 00:23:46.884 : en:00:23:46.884 00:33:46.107 : en:00:33:46.107 00:41:56.889 : en:00:41:56.889 00:51:32.923 : en:00:51:32.923 00:59:54.216 : en:00:59:54.216 01:08:21.097 : en:01:08:21.097 01:16:31.253 : en:01:16:31.253 01:25:57.235 : en:01:25:57.235 01:34:29.622 : en:01:34:29.622 ​
    Code:
    General Complete name : Vampire.Hunter.D.Bloodlust.Movie.German.AC3.DL.1080p.BluRay.x264-AST4u.mkv Format : Matroska Format version : Version 4 File size : 17.3 GiB Duration : 1 h 42 min Overall bit rate : 24.2 Mb/s Encoded date : UTC 2019-04-02 23:59:47 Writing application : mkvmerge v15.0.0 ('Duel with the Devil') 64-bit Writing library : libebml v1.3.5 + libmatroska v1.4.5 Video ID : 1 Format : AVC Format/Info : Advanced Video Codec Format profile : High@L4.1 Format settings : CABAC / 4 Ref Frames Format settings, CABAC : Yes Format settings, RefFrames : 4 frames Codec ID : V_MPEG4/ISO/AVC Duration : 1 h 42 min Bit rate : 23.3 Mb/s Width : 1 920 pixels Height : 1 080 pixels Display aspect ratio : 16:9 Frame rate mode : Constant Frame rate : 23.976 (24000/1001) FPS Color space : YUV Chroma subsampling : 4:2:0 Bit depth : 8 bits Scan type : Progressive Bits/(Pixel*Frame) : 0.469 Stream size : 16.6 GiB (96%) Writing library : x264 core 152 r2851 ba24899 Encoding settings : cabac=1 / ref=3 / deblock=1:1:1 / analyse=0x3:0x133 / me=umh / subme=9 / psy=1 / psy_rd=1.00:0.00 / mixed_ref=1 / me_range=32 / chroma_me=1 / trellis=2 / 8x8dct=1 / cqm=0 / deadzone=21,11 / fast_pskip=1 / chroma_qp_offset=-2 / threads=24 / lookahead_threads=2 / sliced_threads=0 / nr=0 / decimate=1 / interlaced=0 / bluray_compat=0 / constrained_intra=0 / bframes=3 / b_pyramid=2 / b_adapt=2 / b_bias=0 / direct=3 / weightb=1 / open_gop=0 / weightp=2 / keyint=250 / keyint_min=25 / scenecut=40 / intra_refresh=0 / rc_lookahead=48 / rc=crf / mbtree=1 / crf=16.0 / qcomp=0.60 / qpmin=0 / qpmax=69 / qpstep=4 / ip_ratio=1.40 / aq=3:1.00 Default : Yes Forced : No Color range : Limited Matrix coefficients : BT.709 Audio #1 ID : 2 Format : AC-3 Format/Info : Audio Coding 3 Commercial name : Dolby Digital Codec ID : A_AC3 Duration : 1 h 42 min Bit rate mode : Constant Bit rate : 448 kb/s Channel(s) : 6 channels Channel layout : L R C LFE Ls Rs Sampling rate : 48.0 kHz Frame rate : 31.250 FPS (1536 SPF) Bit depth : 16 bits Compression mode : Lossy Stream size : 327 MiB (2%) Language : German Service kind : Complete Main Default : Yes Forced : No Audio #2 ID : 3 Format : AC-3 Format/Info : Audio Coding 3 Commercial name : Dolby Digital Codec ID : A_AC3 Duration : 1 h 42 min Bit rate mode : Constant Bit rate : 448 kb/s Channel(s) : 6 channels Channel layout : L R C LFE Ls Rs Sampling rate : 48.0 kHz Frame rate : 31.250 FPS (1536 SPF) Bit depth : 16 bits Compression mode : Lossy Stream size : 327 MiB (2%) Language : English Service kind : Complete Main Default : No Forced : No Text #1 ID : 4 Format : PGS Muxing mode : zlib Codec ID : S_HDMV/PGS Codec ID/Info : Picture based subtitle format used on BDs/HD-DVDs Duration : 1 h 36 min Bit rate : 37.0 kb/s Count of elements : 1627 Stream size : 25.6 MiB (0%) Language : German Default : No Forced : No Text #2 ID : 5 Format : PGS Muxing mode : zlib Codec ID : S_HDMV/PGS Codec ID/Info : Picture based subtitle format used on BDs/HD-DVDs Duration : 1 h 36 min Bit rate : 33.2 kb/s Count of elements : 2398 Stream size : 22.9 MiB (0%) Language : English Default : No Forced : No Text #3 ID : 6 Format : PGS Muxing mode : zlib Codec ID : S_HDMV/PGS Codec ID/Info : Picture based subtitle format used on BDs/HD-DVDs Duration : 5 s 422 ms Bit rate : 41.4 kb/s Count of elements : 3 Stream size : 27.4 KiB (0%) Language : German Default : No Forced : No Menu 00:00:00.000 : en:00:00:00.000 00:07:05.467 : en:00:07:05.467 00:15:50.658 : en:00:15:50.658 00:23:46.884 : en:00:23:46.884 00:33:46.107 : en:00:33:46.107 00:41:56.889 : en:00:41:56.889 00:51:32.923 : en:00:51:32.923 00:59:54.216 : en:00:59:54.216 01:08:21.097 : en:01:08:21.097 01:16:31.253 : en:01:16:31.253 01:25:57.235 : en:01:25:57.235 01:34:29.622 : en:01:34:29.622 ​
    Code:
    General Complete name : Vampire.Hunter.D.Bloodlust.Movie.German.DTS.DL.1080p.BluRay.x264-AST4u.mkv Format : Matroska Format version : Version 4 File size : 19.8 GiB Duration : 1 h 42 min Overall bit rate mode : Variable Overall bit rate : 27.8 Mb/s Encoded date : UTC 2019-04-03 07:34:47 Writing application : mkvmerge v30.1.0 ('Forever And More') 64-bit Writing library : libebml v1.3.6 + libmatroska v1.4.9 Video ID : 1 Format : AVC Format/Info : Advanced Video Codec Format profile : High@L4.1 Format settings : CABAC / 4 Ref Frames Format settings, CABAC : Yes Format settings, RefFrames : 4 frames Codec ID : V_MPEG4/ISO/AVC Duration : 1 h 42 min Bit rate : 23.3 Mb/s Width : 1 920 pixels Height : 1 080 pixels Display aspect ratio : 16:9 Frame rate mode : Constant Frame rate : 23.976 (24000/1001) FPS Color space : YUV Chroma subsampling : 4:2:0 Bit depth : 8 bits Scan type : Progressive Bits/(Pixel*Frame) : 0.469 Stream size : 16.6 GiB (84%) Writing library : x264 core 152 r2851 ba24899 Encoding settings : cabac=1 / ref=3 / deblock=1:1:1 / analyse=0x3:0x133 / me=umh / subme=9 / psy=1 / psy_rd=1.00:0.00 / mixed_ref=1 / me_range=32 / chroma_me=1 / trellis=2 / 8x8dct=1 / cqm=0 / deadzone=21,11 / fast_pskip=1 / chroma_qp_offset=-2 / threads=24 / lookahead_threads=2 / sliced_threads=0 / nr=0 / decimate=1 / interlaced=0 / bluray_compat=0 / constrained_intra=0 / bframes=3 / b_pyramid=2 / b_adapt=2 / b_bias=0 / direct=3 / weightb=1 / open_gop=0 / weightp=2 / keyint=250 / keyint_min=25 / scenecut=40 / intra_refresh=0 / rc_lookahead=48 / rc=crf / mbtree=1 / crf=16.0 / qcomp=0.60 / qpmin=0 / qpmax=69 / qpstep=4 / ip_ratio=1.40 / aq=3:1.00 Default : Yes Forced : No Color range : Limited Matrix coefficients : BT.709 Audio #1 ID : 5 Format : DTS XLL Format/Info : Digital Theater Systems Commercial name : DTS-HD Master Audio Codec ID : A_DTS Duration : 1 h 42 min Bit rate mode : Variable Bit rate : 2 310 kb/s Channel(s) : 6 channels Channel layout : C L R Ls Rs LFE Sampling rate : 48.0 kHz Frame rate : 93.750 FPS (512 SPF) Bit depth : 16 bits Compression mode : Lossless Stream size : 1.65 GiB (8%) Language : German Default : Yes Forced : No Audio #2 ID : 6 Format : DTS XLL Format/Info : Digital Theater Systems Commercial name : DTS-HD Master Audio Codec ID : A_DTS Duration : 1 h 42 min Bit rate mode : Variable Bit rate : 2 174 kb/s Channel(s) : 6 channels Channel layout : C L R Ls Rs LFE Sampling rate : 48.0 kHz Frame rate : 93.750 FPS (512 SPF) Bit depth : 16 bits Compression mode : Lossless Stream size : 1.55 GiB (8%) Language : English Default : No Forced : No Text #1 ID : 2 Format : PGS Muxing mode : zlib Codec ID : S_HDMV/PGS Codec ID/Info : Picture based subtitle format used on BDs/HD-DVDs Duration : 1 h 36 min Bit rate : 37.0 kb/s Count of elements : 1627 Stream size : 25.6 MiB (0%) Language : German Default : No Forced : No Text #2 ID : 3 Format : PGS Muxing mode : zlib Codec ID : S_HDMV/PGS Codec ID/Info : Picture based subtitle format used on BDs/HD-DVDs Duration : 1 h 36 min Bit rate : 33.2 kb/s Count of elements : 2398 Stream size : 22.9 MiB (0%) Language : English Default : No Forced : No Text #3 ID : 4 Format : PGS Muxing mode : zlib Codec ID : S_HDMV/PGS Codec ID/Info : Picture based subtitle format used on BDs/HD-DVDs Duration : 5 s 422 ms Bit rate : 41.4 kb/s Count of elements : 3 Stream size : 27.4 KiB (0%) Language : German Default : No Forced : No Menu 00:00:00.000 : en:00:00:00.000 00:07:05.467 : en:00:07:05.467 00:15:50.658 : en:00:15:50.658 00:23:46.884 : en:00:23:46.884 00:33:46.107 : en:00:33:46.107 00:41:56.889 : en:00:41:56.889 00:51:32.923 : en:00:51:32.923 00:59:54.216 : en:00:59:54.216 01:08:21.097 : en:01:08:21.097 01:16:31.253 : en:01:16:31.253 01:25:57.235 : en:01:25:57.235 01:34:29.622 : en:01:34:29.622 ​

    Anmerkung:
    Dies ist ein Original BluRay Encode.

    408p:[​IMG]720p:[​IMG]1080p:[​IMG]1080p DTS:[​IMG]

    Geschützter Bereich
    Registriere dich oder logge dich ein, um den Inhalt sehen zu können
     
    Zuletzt bearbeitet: 5. Apr. 2019
    Larsinho, Benjiro, enfii und 15 anderen gefällt das.
  2. Uploading123

    Uploading123 High Quality Anime Nolife

    Registriert seit:
    7. März 2013
    Beiträge:
    637
    Zustimmungen:
    18.837

    Vampire Hunter D Bloodlust Movie

    [​IMG]

    .:Beschreibung:.
    In einer fernen und düsteren Zukunft stehen Vampire, die einst die Welt in Angst und Schrecken versetzten, kurz vor Ihrer Auslöschung. Auch auf den Kopf von Baron Meier Link, einem der letzten großen Vampire, ist eine hohe Belohnung ausgesetzt. Er hat die Tochter einer wohlhabenden Familie entführt. Der geheimnisvolle Kopfgeldjäger D, ein sogenannter Dunpeal (halb Mensch, halb Vampir), nimmt die Jagd auf. Jedoch er ist nicht allein: auch ein Vampirjäger-Team mit einem ganzen Arsenal an modernsten Waffen ist ihm auf der Spur. Ein gnadenloser Wettlauf gegen die Zeit und über die gothisch-romantische Landschaft beginnt. Noch weiß keiner von der dunklen Macht, die im Geheimen ihre Schritte manipuliert, und sie in eine schreckliche Falle lockt. Mit der Dunkelheit beginnt die Jagd!

    .:Info:.
    Größe: 20298 MB
    Laufzeit: 102 Min.
    Format: .mkv
    Video Stream: BD
    Video Codec: MPEG-4 H.264 / AVC
    Audio Stream: DTS-HD MA 5.1
    Sprache/n: GER, ENG
    Untertitel: GER, ENG
    Releaser: AST4u
    IMDb: 7.7
    Hoster: SO, RG

    .:NFO:.
    Code:
    Format                                   : Matroska
    Format-Version                           : Version 4 / Version 2
    Dateigröße                               : 19,8 GiB
    Dauer                                    : 1 h 42 min
    Gesamte Bitrate                          : 27,8 Mb/s
    Kodierungs-Datum                         : UTC 2019-04-03 07:34:47
    Kodierendes Programm                     : mkvmerge v30.1.0 ('Forever And More') 64-bit
    verwendete Encoder-Bibliothek            : libebml v1.3.6 + libmatroska v1.4.9
    
    Video
    ID                                       : 1
    Format                                   : AVC
    Format/Info                              : Advanced Video Codec
    Format-Profil                            : High@L4.1
    Format-Einstellungen                     : CABAC / 4 Ref Frames
    Format-Einstellungen für CABAC           : Ja
    Format-Einstellungen für RefFrames       : 4 frames
    Codec-ID                                 : V_MPEG4/ISO/AVC
    Dauer                                    : 1 h 42 min
    Bitrate                                  : 23,3 Mb/s
    Breite                                   : 1 920 Pixel
    Höhe                                     : 1 080 Pixel
    Bildseitenverhältnis                     : 16:9
    Modus der Bildwiederholungsrate          : konstant
    Bildwiederholungsrate                    : 23,976 (24000/1001) FPS
    ColorSpace                               : YUV
    ChromaSubsampling/String                 : 4:2:0
    BitDepth/String                          : 8 bits
    Scantyp                                  : progressiv
    Bits/(Pixel*Frame)                       : 0.469
    Stream-Größe                             : 16,6 GiB (84%)
    verwendete Encoder-Bibliothek            : x264 core 152 r2851 ba24899
    Kodierungseinstellungen                  : cabac=1 / ref=3 / deblock=1:1:1 / analyse=0x3:0x133 / me=umh / subme=9 / psy=1 / psy_rd=1.00:0.00 / mixed_ref=1 / me_range=32 / chroma_me=1 / trellis=2 / 8x8dct=1 / cqm=0 / deadzone=21,11 / fast_pskip=1 / chroma_qp_offset=-2 / threads=24 / lookahead_threads=2 / sliced_threads=0 / nr=0 / decimate=1 / interlaced=0 / bluray_compat=0 / constrained_intra=0 / bframes=3 / b_pyramid=2 / b_adapt=2 / b_bias=0 / direct=3 / weightb=1 / open_gop=0 / weightp=2 / keyint=250 / keyint_min=25 / scenecut=40 / intra_refresh=0 / rc_lookahead=48 / rc=crf / mbtree=1 / crf=16.0 / qcomp=0.60 / qpmin=0 / qpmax=69 / qpstep=4 / ip_ratio=1.40 / aq=3:1.00
    Default                                  : Ja
    Forced                                   : Nein
    colour_range                             : Limited
    matrix_coefficients                      : BT.709
    
    Audio #1
    ID                                       : 5
    Format                                   : DTS
    Format/Info                              : Digital Theater Systems
    Format-Profil                            : MA / Core
    Codec-ID                                 : A_DTS
    Dauer                                    : 1 h 42 min
    Bitraten-Modus                           : variabel / konstant
    Bitrate                                  : 2 310 kb/s / 1 509 kb/s
    Kanäle                                   : 6 Kanäle
    Kanal-Positionen                         : Front: L C R, Side: L R, LFE
    Samplingrate                             : 48,0 kHz
    Bildwiederholungsrate                    : 93,750 FPS (512 SPF)
    BitDepth/String                          : 16 bits
    Compression_Mode/String                  :  / Lossy
    Stream-Größe                             : 1,65 GiB (8%)
    Sprache                                  : Deutsch
    Default                                  : Ja
    Forced                                   : Nein
    
    Audio #2
    ID                                       : 6
    Format                                   : DTS
    Format/Info                              : Digital Theater Systems
    Format-Profil                            : MA / Core
    Codec-ID                                 : A_DTS
    Dauer                                    : 1 h 42 min
    Bitraten-Modus                           : variabel / konstant
    Bitrate                                  : 2 174 kb/s / 1 509 kb/s
    Kanäle                                   : 6 Kanäle
    Kanal-Positionen                         : Front: L C R, Side: L R, LFE
    Samplingrate                             : 48,0 kHz
    Bildwiederholungsrate                    : 93,750 FPS (512 SPF)
    BitDepth/String                          : 16 bits
    Compression_Mode/String                  :  / Lossy
    Stream-Größe                             : 1,55 GiB (8%)
    Sprache                                  : Englisch
    Default                                  : Nein
    Forced                                   : Nein
    
    Text #1
    ID                                       : 2
    Format                                   : PGS
    Muxing-Modus                             : zlib
    Codec-ID                                 : S_HDMV/PGS
    Codec-ID/Info                            : Picture based subtitle format used on BDs/HD-DVDs
    Dauer                                    : 1 h 36 min
    Bitrate                                  : 37,0 kb/s
    ElementCount                             : 1627
    Stream-Größe                             : 25,6 MiB (0%)
    Sprache                                  : Deutsch
    Default                                  : Nein
    Forced                                   : Nein
    
    Text #2
    ID                                       : 3
    Format                                   : PGS
    Muxing-Modus                             : zlib
    Codec-ID                                 : S_HDMV/PGS
    Codec-ID/Info                            : Picture based subtitle format used on BDs/HD-DVDs
    Dauer                                    : 1 h 36 min
    Bitrate                                  : 33,2 kb/s
    ElementCount                             : 2398
    Stream-Größe                             : 22,9 MiB (0%)
    Sprache                                  : Englisch
    Default                                  : Nein
    Forced                                   : Nein
    
    Text #3
    ID                                       : 4
    Format                                   : PGS
    Muxing-Modus                             : zlib
    Codec-ID                                 : S_HDMV/PGS
    Codec-ID/Info                            : Picture based subtitle format used on BDs/HD-DVDs
    Dauer                                    : 5s 422 ms
    Bitrate                                  : 41,4 kb/s
    ElementCount                             : 3
    Stream-Größe                             : 27,4 KiB (0%)
    Sprache                                  : Deutsch
    Default                                  : Nein
    Forced                                   : Nein
    
    Menü
    00:00:00.000                             : en:00:00:00.000
    00:07:05.467                             : en:00:07:05.467
    00:15:50.658                             : en:00:15:50.658
    00:23:46.884                             : en:00:23:46.884
    00:33:46.107                             : en:00:33:46.107
    00:41:56.889                             : en:00:41:56.889
    00:51:32.923                             : en:00:51:32.923
    00:59:54.216                             : en:00:59:54.216
    01:08:21.097                             : en:01:08:21.097
    01:16:31.253                             : en:01:16:31.253
    01:25:57.235                             : en:01:25:57.235
    01:34:29.622                             : en:01:34:29.622
    
    


    Mirrors kompatibel

    .:Share-online.biz:. [​IMG]
    Geschützter Bereich
    Registriere dich oder logge dich ein, um den Inhalt sehen zu können
    .:Rapidgator.net:. [​IMG]
    Geschützter Bereich
    Registriere dich oder logge dich ein, um den Inhalt sehen zu können
     
    xeltzber, Schindow und Falke176_inactive gefällt das.

Diese Seite empfehlen