1. Aktuell funktioniert unser Image Proxy nicht mehr ordnungsgemäß, sodass keine Bilder mehr angezeigt werden. Wir kümmern uns darum!

Wir verwenden Cookies, um deinen Aufenthalt auf Animes.so möglichst angenehm gestalten zu können. Mehr erfahren

Vivy: Fluorite Eyes Song [Laufend][JapDub][GerSub][720p|1080p][WebRip] - Wakanim

Dieses Thema im Forum "Anime Serien (Deutsche Untertitel)" wurde erstellt von Tanuki, 3. Apr. 2021.

  1. Tanuki
    Tanuki

    Uploader Otaku Experte

    Registriert seit:
    7. Juli 2016
    Beiträge:
    88
    Zustimmungen:
    18.692
    Vivy: Fluorite Eye’s Song

    [​IMG]
    [​IMG]

    »Nearland«, das ist ein KI-Komplex-Themenpark, in dem sich Träume, Hoffnungen und Wissenschaft vermischen. Vivy wurde als erste autonome humanoide KI überhaupt geschaffen und arbeitet als Sängerin, die jeden Tag auf der Bühne im Park steht. Allerdings ist sie bisher kaum bekannt.

    Vivys Mission ist es, alle Menschen mit ihrem Gesang glücklich zu machen. Um dies zu erreichen, singt sie mit dem Ziel, irgendwann auf der Hauptbühne im Park zu sehen und sich dort die Seele aus dem Leib zu singen.

    Eines Tages erscheint eine KI, die sich Matsumoto nennt und 100 Jahre aus der Zukunft kommt. Seine Mission besteht darin, »mit Vivy zusammenzuarbeiten, um die Geschichte zu korrigieren und den Krieg zwischen KI und Menschen zu verhindern, der in 100 Jahren stattfinden wird«.

    Was für eine Zukunft wird das Aufeinandertreffen der beiden KIs mit unterschiedlichen Missionen nach sich ziehen?

    Folgen: 4/13
    Größe pro Folge: ~477 MB/~1070 MB
    Folgendauer: ~24 Min
    Releaser: Tanuki
    Art: Lizenzrelease
    Sprache: Japanisch
    Untertitel: Deutsch
    Jahr: 2021
    Genres: Action, Scifi
    Auflösung: 1280x720/1920x1080
    Format: MKV
    Quelle: WebRip
    Videocodec: x264
    Farbtiefe: 8Bit
    Audiocodec: AAC
    Publisher: Wakanim DE
    Hoster: Uploaded, ddownload

    [​IMG]
    Code:
    General Unique ID : 134083254823962630330989762880105952355 (0x64DF7EDC68151C89BE6DAE6E6F3D3463) Complete name : Vivy-Fluorite.Eyes.Song.E01.GerSub.AAC.720p.WebRip.x264-Tanuki.mkv Format : Matroska Format version : Version 4 File size : 477 MiB Duration : 26 min 10 s Overall bit rate : 2 549 kb/s Encoded date : UTC 2021-04-03 19:00:30 Writing application : mkvmerge v52.0.0 ('Secret For The Mad') 64-bit Writing library : libebml v1.4.1 + libmatroska v1.6.2 Attachments : font.ttf Video ID : 1 Format : AVC Format/Info : Advanced Video Codec Format profile : High@L3.1 Format settings : CABAC / 4 Ref Frames Format settings, CABAC : Yes Format settings, Reference frames : 4 frames Codec ID : V_MPEG4/ISO/AVC Duration : 26 min 10 s Bit rate : 2 226 kb/s Width : 1 280 pixels Height : 720 pixels Display aspect ratio : 16:9 Frame rate mode : Constant Frame rate : 23.976 (24000/1001) FPS Color space : YUV Chroma subsampling : 4:2:0 Bit depth : 8 bits Scan type : Progressive Bits/(Pixel*Frame) : 0.101 Stream size : 417 MiB (87%) Writing library : x264 core 155 r2901 7d0ff22 Encoding settings : cabac=1 / ref=2 / deblock=1:0:0 / analyse=0x3:0x113 / me=hex / subme=6 / psy=1 / psy_rd=1.00:0.00 / mixed_ref=1 / me_range=16 / chroma_me=1 / trellis=1 / 8x8dct=1 / cqm=0 / deadzone=21,11 / fast_pskip=1 / chroma_qp_offset=-2 / threads=12 / lookahead_threads=2 / sliced_threads=0 / nr=0 / decimate=1 / interlaced=0 / bluray_compat=0 / constrained_intra=0 / bframes=3 / b_pyramid=2 / b_adapt=1 / b_bias=0 / direct=1 / weightb=1 / open_gop=0 / weightp=1 / keyint=250 / keyint_min=23 / scenecut=40 / intra_refresh=0 / rc_lookahead=30 / rc=crf / mbtree=1 / crf=16.0 / qcomp=0.60 / qpmin=0 / qpmax=69 / qpstep=4 / ip_ratio=1.40 / aq=1:1.00 Default : Yes Forced : No Audio ID : 2 Format : AAC LC Format/Info : Advanced Audio Codec Low Complexity Codec ID : A_AAC-2 Duration : 26 min 10 s Bit rate : 320 kb/s Channel(s) : 2 channels Channel layout : L R Sampling rate : 48.0 kHz Frame rate : 46.875 FPS (1024 SPF) Compression mode : Lossy Delay relative to video : -21 ms Stream size : 59.9 MiB (13%) Default : Yes Forced : No Menu 00:00:00.000 : :Hauptteil 00:24:34.000 : :Ending 00:26:00.000 : :Abspann ​
    Code:
    General Unique ID : 291749950175179818884213662343618687346 (0xDB7CFF1CB1AC8BDFD1143DEA08D4F172) Complete name : Vivy-Fluorite.Eyes.Song.E01.GerSub.AAC.1080p.WebRip.x264-Tanuki.mkv Format : Matroska Format version : Version 4 File size : 1.05 GiB Duration : 26 min 10 s Overall bit rate : 5 719 kb/s Encoded date : UTC 2021-04-03 16:52:20 Writing application : mkvmerge v52.0.0 ('Secret For The Mad') 64-bit Writing library : libebml v1.4.1 + libmatroska v1.6.2 Attachments : font.ttf Video ID : 1 Format : AVC Format/Info : Advanced Video Codec Format profile : High@L4 Format settings : CABAC / 4 Ref Frames Format settings, CABAC : Yes Format settings, Reference frames : 4 frames Codec ID : V_MPEG4/ISO/AVC Duration : 26 min 10 s Bit rate : 5 396 kb/s Width : 1 920 pixels Height : 1 080 pixels Display aspect ratio : 16:9 Frame rate mode : Constant Frame rate : 23.976 (24000/1001) FPS Color space : YUV Chroma subsampling : 4:2:0 Bit depth : 8 bits Scan type : Progressive Bits/(Pixel*Frame) : 0.109 Stream size : 1 010 MiB (94%) Writing library : x264 core 155 r2901 7d0ff22 Encoding settings : cabac=1 / ref=2 / deblock=1:0:0 / analyse=0x3:0x113 / me=hex / subme=6 / psy=1 / psy_rd=1.00:0.00 / mixed_ref=1 / me_range=16 / chroma_me=1 / trellis=1 / 8x8dct=1 / cqm=0 / deadzone=21,11 / fast_pskip=1 / chroma_qp_offset=-2 / threads=12 / lookahead_threads=2 / sliced_threads=0 / nr=0 / decimate=1 / interlaced=0 / bluray_compat=0 / constrained_intra=0 / bframes=3 / b_pyramid=2 / b_adapt=1 / b_bias=0 / direct=1 / weightb=1 / open_gop=0 / weightp=1 / keyint=250 / keyint_min=23 / scenecut=40 / intra_refresh=0 / rc_lookahead=30 / rc=crf / mbtree=1 / crf=16.0 / qcomp=0.60 / qpmin=0 / qpmax=69 / qpstep=4 / ip_ratio=1.40 / aq=1:1.00 Default : Yes Forced : No Audio ID : 2 Format : AAC LC Format/Info : Advanced Audio Codec Low Complexity Codec ID : A_AAC-2 Duration : 26 min 10 s Bit rate : 320 kb/s Channel(s) : 2 channels Channel layout : L R Sampling rate : 48.0 kHz Frame rate : 46.875 FPS (1024 SPF) Compression mode : Lossy Delay relative to video : -21 ms Stream size : 59.9 MiB (6%) Default : Yes Forced : No Menu 00:00:00.000 : :Hauptteil 00:24:34.000 : :Ending 00:26:00.000 : :Abspann ​

    720p:[​IMG]1080p:[​IMG]

    Geschützter Bereich
    Registriere dich oder logge dich ein, um den Inhalt sehen zu können
     
    Zuletzt bearbeitet: 17. Apr. 2021
  2. Tanuki
    Tanuki

    Uploader Otaku Experte

    Registriert seit:
    7. Juli 2016
    Beiträge:
    88
    Zustimmungen:
    18.692
    Episoden 2 & 3 hinzugefügt
     
  3. Tanuki
    Tanuki

    Uploader Otaku Experte

    Registriert seit:
    7. Juli 2016
    Beiträge:
    88
    Zustimmungen:
    18.692
    Episode 4 hinzugefügt
     

Diese Seite empfehlen