1. Aktuell funktioniert unser Image Proxy nicht mehr ordnungsgemäß, sodass keine Bilder mehr angezeigt werden. Wir kümmern uns darum!

Wir verwenden Cookies, um deinen Aufenthalt auf Animes.so möglichst angenehm gestalten zu können. Mehr erfahren

We Never Learn: Staffel 2 [Ger-Jap-Dub][Ger-Sub][AC3][720p|1080p][x264|x265][BluRay] - ABJ

Dieses Thema im Forum "Download Archiv" wurde erstellt von supersonik, 20. März 2021.

  1. supersonik
    supersonik

    Elite Nolife Uploader

    Registriert seit:
    7. Jan. 2018
    Beiträge:
    632
    Zustimmungen:
    27.309

    We Never Learn: Staffel 2
    Bokutachi wa Benkyou ga Dekinai!
    ぼくたちは勉強ができない!
    [​IMG]

    Beschreibung:
    Mit Bokutachi wa Benkyou ga Dekinai (2019) geht die Anime-Adaption zu Taishi Tsutsuis gleichnamigem Manga in ihre zweite Runde. Nachdem die überaus ereignisreichen Lern-Sessions der Oberschüler rund um Nariyuki Yuiga mehr als einmal in äußerst suggestiven Situationen endeten und Nariyuki – ganz der Gentleman – seinen weiblichen Gefährten (ob Sensei, Senpai oder gleichaltrig) beistehen musste, fand der Sommer mit dem großen Sommerfestival ein Ende. Auch hier traf Nariyuki wie durch Zauberhand wieder auf alle üblichen Verdächtigen und während er und Uruka am Udon-Stand von Rizes Familie aushalfen, gab Kirisu-sensei sich größte Mühe, den Besitzer der Schießbude in den finanziellen Ruin zu treiben … Als sich des Nachts jedoch zwei kleine Mädchen verliefen und weinend nach ihrer Mutter suchten, konnten sowohl Nariyuki als Fumino nicht anders, als den beiden zu helfen – obwohl sie so den letzten Zug nach Hause verpassten.

    Mit den Gefühlen der Mädchen in Aufruhr und mit klaren Zielen vor Augen geht es nun weiter durch die steinige Lernlandschaft! Zu lernen haben schließlich allesamt noch einiges – ganz egal, ob man noch auf den Universitätszugang abzielt, man die Oberschule bereits hinter sich gelassen hat oder man selbst geübt vor der einen oder anderen Klasse gestanden hat …
    by anisearch.de

    Episoden: 9/13
    Größe: ~510 MB | ~920 MB | ~880 MB
    Releaser: Anime BluRay Junkies
    Art: Lizenzrelease
    Sprache: Deutsch | Japanisch
    Untertitel: Deutsch
    Jahr: 2019
    Genres: Romantische Komödie, Alltagsleben, Harem, Gegenwart, Genie, Oberschule
    Auflösung: 1280x720 | 1920x1080
    Format: MKV
    Quelle: BluRay
    Videocodec: x264 | x265
    Farbtiefe: 8bit
    Audiocodec: AC3
    Publisher: ARVO Animation Inc. | Silver Co. Ltd. | Kaze
    Hoster: DDownload | Uploaded


    Mediainfo:
    Code:
    General Unique ID : 210931800662053679749620185257290797064 (0x9EAFFCB35CD6B0F6FC97E1DF22B49008) Complete name : We.Never.Learn.S02E01.German.DL.AC3.720p.BluRay.x264-ABJ.mkv Format : Matroska Format version : Version 4 File size : 509 MiB Duration : 23 min 41 s Overall bit rate : 3 005 kb/s Encoded date : UTC 2021-03-17 20:22:18 Writing application : mkvmerge v53.0.0 ('Fool's Gold') 64-bit Writing library : libebml v1.4.1 + libmatroska v1.6.2 Version : 1.1 Video ID : 1 Format : AVC Format/Info : Advanced Video Codec Format profile : High@L5 Format settings : CABAC / 12 Ref Frames Format settings, CABAC : Yes Format settings, Reference frames : 12 frames Codec ID : V_MPEG4/ISO/AVC Duration : 23 min 41 s Bit rate : 2 049 kb/s Width : 1 280 pixels Height : 720 pixels Display aspect ratio : 16:9 Frame rate mode : Constant Frame rate : 23.976 (24000/1001) FPS Color space : YUV Chroma subsampling : 4:2:0 Bit depth : 8 bits Scan type : Progressive Bits/(Pixel*Frame) : 0.093 Stream size : 347 MiB (68%) Default : Yes Forced : No Color range : Limited Color primaries : BT.709 Transfer characteristics : BT.709 Matrix coefficients : BT.709 Audio #1 ID : 2 Format : AC-3 Format/Info : Audio Coding 3 Commercial name : Dolby Digital Codec ID : A_AC3 Duration : 23 min 41 s Bit rate mode : Constant Bit rate : 448 kb/s Channel(s) : 2 channels Channel layout : L R Sampling rate : 48.0 kHz Frame rate : 31.250 FPS (1536 SPF) Compression mode : Lossy Stream size : 75.9 MiB (15%) Language : German Service kind : Complete Main Default : Yes Forced : No Audio #2 ID : 3 Format : AC-3 Format/Info : Audio Coding 3 Commercial name : Dolby Digital Codec ID : A_AC3 Duration : 23 min 41 s Bit rate mode : Constant Bit rate : 448 kb/s Channel(s) : 2 channels Channel layout : L R Sampling rate : 48.0 kHz Frame rate : 31.250 FPS (1536 SPF) Compression mode : Lossy Stream size : 75.9 MiB (15%) Language : Japanese Service kind : Complete Main Default : No Forced : No Text #1 ID : 4 Format : PGS Muxing mode : zlib Codec ID : S_HDMV/PGS Codec ID/Info : Picture based subtitle format used on BDs/HD-DVDs Language : German Default : Yes Forced : Yes Text #2 ID : 5 Format : PGS Muxing mode : zlib Codec ID : S_HDMV/PGS Codec ID/Info : Picture based subtitle format used on BDs/HD-DVDs Language : German Default : No Forced : No Menu 00:00:00.000 : en:Chapter 01 00:02:45.999 : en:Chapter 02 00:11:23.683 : en:Chapter 03 00:22:05.032 : en:Chapter 04 00:23:34.996 : en:Chapter 05 ​
    Code:
    General Unique ID : 152171698739394931858496481419684331529 (0x727B340043E77D2DC283AF5C28E5C009) Complete name : We.Never.Learn.S02E01.German.DL.AC3.1080p.BluRay.x264-ABJ.mkv Format : Matroska Format version : Version 4 File size : 921 MiB Duration : 23 min 41 s Overall bit rate : 5 439 kb/s Encoded date : UTC 2021-03-17 20:21:56 Writing application : mkvmerge v53.0.0 ('Fool's Gold') 64-bit Writing library : libebml v1.4.1 + libmatroska v1.6.2 Version : 1.1 Video ID : 1 Format : AVC Format/Info : Advanced Video Codec Format profile : High@L5 Format settings : CABAC / 12 Ref Frames Format settings, CABAC : Yes Format settings, Reference frames : 12 frames Codec ID : V_MPEG4/ISO/AVC Duration : 23 min 41 s Bit rate : 4 435 kb/s Width : 1 920 pixels Height : 1 080 pixels Display aspect ratio : 16:9 Frame rate mode : Constant Frame rate : 23.976 (24000/1001) FPS Color space : YUV Chroma subsampling : 4:2:0 Bit depth : 8 bits Scan type : Progressive Bits/(Pixel*Frame) : 0.089 Stream size : 751 MiB (82%) Default : Yes Forced : No Color range : Limited Color primaries : BT.709 Transfer characteristics : BT.709 Matrix coefficients : BT.709 Audio #1 ID : 2 Format : AC-3 Format/Info : Audio Coding 3 Commercial name : Dolby Digital Codec ID : A_AC3 Duration : 23 min 41 s Bit rate mode : Constant Bit rate : 448 kb/s Channel(s) : 2 channels Channel layout : L R Sampling rate : 48.0 kHz Frame rate : 31.250 FPS (1536 SPF) Compression mode : Lossy Stream size : 75.9 MiB (8%) Language : German Service kind : Complete Main Default : Yes Forced : No Audio #2 ID : 3 Format : AC-3 Format/Info : Audio Coding 3 Commercial name : Dolby Digital Codec ID : A_AC3 Duration : 23 min 41 s Bit rate mode : Constant Bit rate : 448 kb/s Channel(s) : 2 channels Channel layout : L R Sampling rate : 48.0 kHz Frame rate : 31.250 FPS (1536 SPF) Compression mode : Lossy Stream size : 75.9 MiB (8%) Language : Japanese Service kind : Complete Main Default : No Forced : No Text #1 ID : 4 Format : PGS Muxing mode : zlib Codec ID : S_HDMV/PGS Codec ID/Info : Picture based subtitle format used on BDs/HD-DVDs Language : German Default : Yes Forced : Yes Text #2 ID : 5 Format : PGS Muxing mode : zlib Codec ID : S_HDMV/PGS Codec ID/Info : Picture based subtitle format used on BDs/HD-DVDs Language : German Default : No Forced : No Menu 00:00:00.000 : en:Chapter 01 00:02:45.999 : en:Chapter 02 00:11:23.683 : en:Chapter 03 00:22:05.032 : en:Chapter 04 00:23:34.996 : en:Chapter 05 ​
    Code:
    General Unique ID : 332898647250100911719297764252021361708 (0xFA71F283770CC10B033299E205C70C2C) Complete name : We.Never.Learn.S02E01.German.DL.AC3.1080p.BluRay.x265-ABJ.mkv Format : Matroska Format version : Version 4 File size : 884 MiB Duration : 23 min 41 s Overall bit rate : 5 220 kb/s Encoded date : UTC 2021-03-18 17:59:49 Writing application : mkvmerge v52.0.0 ('Secret For The Mad') 64-bit Writing library : libebml v1.4.1 + libmatroska v1.6.2 Version : V1.1 Video ID : 1 Format : HEVC Format/Info : High Efficiency Video Coding Format profile : Main@L6.2@High Codec ID : V_MPEGH/ISO/HEVC Duration : 23 min 41 s Bit rate : 4 220 kb/s Width : 1 920 pixels Height : 1 080 pixels Display aspect ratio : 16:9 Frame rate mode : Constant Frame rate : 23.976 (24000/1001) FPS Color space : YUV Chroma subsampling : 4:2:0 Bit depth : 8 bits Bits/(Pixel*Frame) : 0.085 Stream size : 715 MiB (81%) Language : Japanese Default : Yes Forced : No Audio #1 ID : 2 Format : AC-3 Format/Info : Audio Coding 3 Commercial name : Dolby Digital Codec ID : A_AC3 Duration : 23 min 41 s Bit rate mode : Constant Bit rate : 448 kb/s Channel(s) : 2 channels Channel layout : L R Sampling rate : 48.0 kHz Frame rate : 31.250 FPS (1536 SPF) Compression mode : Lossy Stream size : 75.9 MiB (9%) Language : German Service kind : Complete Main Default : Yes Forced : No Audio #2 ID : 3 Format : AC-3 Format/Info : Audio Coding 3 Commercial name : Dolby Digital Codec ID : A_AC3 Duration : 23 min 41 s Bit rate mode : Constant Bit rate : 448 kb/s Channel(s) : 2 channels Channel layout : L R Sampling rate : 48.0 kHz Frame rate : 31.250 FPS (1536 SPF) Compression mode : Lossy Stream size : 75.9 MiB (9%) Language : Japanese Service kind : Complete Main Default : No Forced : No Text #1 ID : 4 Format : PGS Muxing mode : zlib Codec ID : S_HDMV/PGS Codec ID/Info : Picture based subtitle format used on BDs/HD-DVDs Language : German Default : Yes Forced : Yes Text #2 ID : 5 Format : PGS Muxing mode : zlib Codec ID : S_HDMV/PGS Codec ID/Info : Picture based subtitle format used on BDs/HD-DVDs Language : German Default : No Forced : No Menu 00:00:00.000 : en:Chapter 01 00:02:45.999 : en:Chapter 02 00:11:23.683 : en:Chapter 03 00:22:05.032 : en:Chapter 04 00:23:34.996 : en:Chapter 05 ​
    x264-720p-ac3: [​IMG]
    x264-1080p-ac3: [​IMG]
    x265-1080p-ac3: [​IMG]
    Geschützter Bereich
    Registriere dich oder logge dich ein, um den Inhalt sehen zu können
     

Diese Seite empfehlen