• Wie Du sicherlich schon gesehen hast, hat sich Animes.so gewaltig verändert. Klicke hier um mehr Informationen darüber zu erhalten.

Weathering With You: Das Mädchen, das die Sonne berührte [Ger-Jap-Dub][Ger-Sub][DTS-HD | EAC3][2160p][HDR][AV1][BluRay] - AO

Kleinmike

Uploader
Otaku König
Beiträge
164
Punkte Reaktionen
1.935
Punkte
93
Weathering With You: Das Mädchen, das die Sonne berührte
天気の子 | Tenki no Ko

14029.webp


Beschreibung:
Im Original-Anime »Weathering With You: Das Mädchen, das die Sonne berührte« folgen wir dem Oberschüler Hodaka Morishima, der das Leben auf seiner kleinen, von der Außenwelt abgeschnittenen Heimatinsel satt hat und von dort wegläuft und nach Tokio zieht. Kaum im Großstadtdschungel der Millionenmetropole angekommen, muss er feststellen, dass er ziemlich pleite ist. Er fristet seine Tage in Einsamkeit und lebt von der Hand zum Mund, bis er eines Tages endlich eine Anstellung als Autor für ein fragwürdiges Esoterik-Magazin bekommt. So wirklich motiviert geht es mit der Arbeit allerdings nicht voran, bis Hodaka im Gewusel der Großstadt auf Hina trifft. Hina lebt nur mit ihrem jüngeren Bruder zusammen und obwohl die beiden nicht viel haben, leben sie dennoch ein glückliches Leben. Sie weiß den jungen Hodaka allerdings nicht nur durch ihr sonniges Gemüt zu begeistern, sondern auch mit ihrer ganz besonderen Fähigkeit: Sie kann das Wetter beeinflussen und an einem regnerischen Tag wie auf Befehl die Sonne scheinen lassen!

Während sich die Beziehung der beiden jungen Menschen entwickelt, ziehen jedoch dunkle Wolken über ihrem scheinbar unbeschwerten Leben auf, denn wer in die Gesetze der Natur eingreift, muss bereit sein, den Preis dafür zu zahlen …
Quelle: anisearch

Laufzeit: 114Min
Größe: 13.5GB | 8.93GB
Sprache: Japanisch | Deutsch
Untertitel: Deutsch
Jahr: 2020
Genres: Sentimentales Drama, Alltagsleben, Fantasy, Komödie, Mystery, Romanze
Auflösung: 3840x2160
Format: MKV
Videocodec: AV1 (AOM)
Farbtiefe: 10bit
Audiocodec: DTS-HD | EAC3
Releaser: Anime Otakus
Publisher: LEONINE Anime
Hoster: DDownload | Rapdigator

Mediainfo:
Code:
Format                                   : Matroska
Format version                           : Version 4
File size                                : 13.5 GiB
Duration                                 : 1 h 53 min
Overall bit rate mode                    : Variable
Overall bit rate                         : 17.1 Mb/s
Encoded date                             : UTC 2022-06-22 22:48:05
Writing application                      : mkvmerge v63.0.0 ('Everything') 64-bit
Writing library                          : libebml v1.4.2 + libmatroska v1.6.4
Released by                              : Anime Otakus
Version                                  : 1.1

Video
ID                                       : 1
Format                                   : AV1
Format/Info                              : AOMedia Video 1
Format profile                           : [email protected]
HDR format                               : SMPTE ST 2086, HDR10 compatible
Codec ID                                 : V_AV1
Duration                                 : 1 h 53 min
Bit rate                                 : 9 964 kb/s
Width                                    : 3 840 pixels
Height                                   : 2 160 pixels
Display aspect ratio                     : 16:9
Frame rate mode                          : Constant
Frame rate                               : 23.976 (24000/1001) FPS
Color space                              : YUV
Chroma subsampling                       : 4:2:0
Bit depth                                : 10 bits
Bits/(Pixel*Frame)                       : 0.050
Stream size                              : 7.89 GiB (58%)
Default                                  : No
Forced                                   : No
Color range                              : Limited
Color primaries                          : BT.2020
Transfer characteristics                 : PQ
Matrix coefficients                      : BT.2020 non-constant
Mastering display color primaries        : R: x=0.708000 y=0.292000, G: x=0.170000 y=0.797000, B: x=0.046000 y=0.131000, White point: x=0.329000 y=0.312700
Mastering display luminance              : min: 0.0010 cd/m2, max: 1000 cd/m2
Maximum Content Light Level              : 1028
Maximum Frame-Average Light Level        : 782

Audio #1
ID                                       : 2
Format                                   : DTS XLL
Format/Info                              : Digital Theater Systems
Commercial name                          : DTS-HD Master Audio
Codec ID                                 : A_DTS
Duration                                 : 1 h 53 min
Bit rate mode                            : Variable
Bit rate                                 : 3 556 kb/s
Channel(s)                               : 6 channels
Channel layout                           : C L R Ls Rs LFE
Sampling rate                            : 48.0 kHz
Frame rate                               : 93.750 FPS (512 SPF)
Bit depth                                : 24 bits
Compression mode                         : Lossless
Stream size                              : 2.81 GiB (21%)
Language                                 : German
Default                                  : Yes
Forced                                   : No

Audio #2
ID                                       : 3
Format                                   : DTS XLL
Format/Info                              : Digital Theater Systems
Commercial name                          : DTS-HD Master Audio
Codec ID                                 : A_DTS
Duration                                 : 1 h 53 min
Bit rate mode                            : Variable
Bit rate                                 : 3 547 kb/s
Channel(s)                               : 6 channels
Channel layout                           : C L R Ls Rs LFE
Sampling rate                            : 48.0 kHz
Frame rate                               : 93.750 FPS (512 SPF)
Bit depth                                : 24 bits
Compression mode                         : Lossless
Stream size                              : 2.81 GiB (21%)
Language                                 : Japanese
Default                                  : No
Forced                                   : No

Text #1
ID                                       : 4
Format                                   : PGS
Muxing mode                              : zlib
Codec ID                                 : S_HDMV/PGS
Codec ID/Info                            : Picture based subtitle format used on BDs/HD-DVDs
Duration                                 : 1 h 37 min
Bit rate                                 : 1 833 b/s
Count of elements                        : 138
Stream size                              : 1.28 MiB (0%)
Title                                    : German Forced
Language                                 : German
Default                                  : Yes
Forced                                   : No

Text #2
ID                                       : 5
Format                                   : PGS
Muxing mode                              : zlib
Codec ID                                 : S_HDMV/PGS
Codec ID/Info                            : Picture based subtitle format used on BDs/HD-DVDs
Duration                                 : 1 h 51 min
Bit rate                                 : 27.0 kb/s
Count of elements                        : 2472
Stream size                              : 21.5 MiB (0%)
Title                                    : German Full
Language                                 : German
Default                                  : No
Forced                                   : No

Menu
00:00:00.000                             : 00:00:00.000
00:11:25.976                             : 00:11:25.976
00:20:11.210                             : 00:20:11.210
00:30:32.831                             : 00:30:32.831
00:42:01.101                             : 00:42:01.101
00:52:36.319                             : 00:52:36.319
01:02:08.641                             : 01:02:08.641
01:14:04.022                             : 01:14:04.022
01:23:40.807                             : 01:23:40.807
01:33:27.727                             : 01:33:27.727
01:45:55.474                             : 01:45:55.474
Code:
Format                                   : Matroska
Format version                           : Version 4
File size                                : 8.93 GiB
Duration                                 : 1 h 53 min
Overall bit rate                         : 11.3 Mb/s
Writing application                      : Lavf59.24.100
Writing library                          : Lavf59.24.100
ErrorDetectionType                       : Per level 1
Released by                              : Anime Otakus
Version                                  : 1.1

Video
ID                                       : 1
Format                                   : AV1
Format/Info                              : AOMedia Video 1
Format profile                           : [email protected]
HDR format                               : SMPTE ST 2086, HDR10 compatible
Codec ID                                 : V_AV1
Duration                                 : 1 h 53 min
Bit rate                                 : 9 772 kb/s
Width                                    : 3 840 pixels
Height                                   : 2 160 pixels
Display aspect ratio                     : 16:9
Frame rate mode                          : Constant
Frame rate                               : 23.976 (24000/1001) FPS
Color space                              : YUV
Chroma subsampling                       : 4:2:0
Bit depth                                : 10 bits
Bits/(Pixel*Frame)                       : 0.049
Stream size                              : 7.74 GiB (87%)
Default                                  : No
Forced                                   : No
Color range                              : Limited
Color primaries                          : BT.2020
Transfer characteristics                 : PQ
Matrix coefficients                      : BT.2020 non-constant
Mastering display color primaries        : R: x=0.708000 y=0.292000, G: x=0.170000 y=0.797000, B: x=0.046000 y=0.131000, White point: x=0.329000 y=0.312700
Mastering display luminance              : min: 0.0010 cd/m2, max: 1000 cd/m2
Maximum Content Light Level              : 1028
Maximum Frame-Average Light Level        : 782

Audio #1
ID                                       : 2
Format                                   : E-AC-3
Format/Info                              : Enhanced AC-3
Commercial name                          : Dolby Digital Plus
Codec ID                                 : A_EAC3
Duration                                 : 1 h 53 min
Bit rate mode                            : Constant
Bit rate                                 : 640 kb/s
Channel(s)                               : 6 channels
Channel layout                           : L R C LFE Ls Rs
Sampling rate                            : 48.0 kHz
Frame rate                               : 31.250 FPS (1536 SPF)
Bit depth                                : 32 bits
Compression mode                         : Lossy
Delay relative to video                  : -5 ms
Stream size                              : 519 MiB (6%)
Language                                 : German
Service kind                             : Complete Main
Default                                  : Yes
Forced                                   : No

Audio #2
ID                                       : 3
Format                                   : E-AC-3
Format/Info                              : Enhanced AC-3
Commercial name                          : Dolby Digital Plus
Codec ID                                 : A_EAC3
Duration                                 : 1 h 53 min
Bit rate mode                            : Constant
Bit rate                                 : 640 kb/s
Channel(s)                               : 6 channels
Channel layout                           : L R C LFE Ls Rs
Sampling rate                            : 48.0 kHz
Frame rate                               : 31.250 FPS (1536 SPF)
Bit depth                                : 32 bits
Compression mode                         : Lossy
Delay relative to video                  : -5 ms
Stream size                              : 519 MiB (6%)
Language                                 : Japanese
Service kind                             : Complete Main
Default                                  : No
Forced                                   : No

Text #1
ID                                       : 4
Format                                   : PGS
Codec ID                                 : S_HDMV/PGS
Codec ID/Info                            : Picture based subtitle format used on BDs/HD-DVDs
Title                                    : German Forced
Language                                 : German
Default                                  : Yes
Forced                                   : No

Text #2
ID                                       : 5
Format                                   : PGS
Codec ID                                 : S_HDMV/PGS
Codec ID/Info                            : Picture based subtitle format used on BDs/HD-DVDs
Title                                    : German Full
Language                                 : German
Default                                  : No
Forced                                   : No

Menu
00:00:00.000                             : 00:00:00.000
00:11:25.976                             : 00:11:25.976
00:20:11.210                             : 00:20:11.210
00:30:32.831                             : 00:30:32.831
00:42:01.101                             : 00:42:01.101
00:52:36.319                             : 00:52:36.319
01:02:08.641                             : 01:02:08.641
01:14:04.022                             : 01:14:04.022
01:23:40.807                             : 01:23:40.807
01:33:27.727                             : 01:33:27.727
01:45:55.474                             : 01:45:55.474
Status:
Rapdigator:
2160p DTS-HD:
0178C78957.png

2160p EAC3:
F202954841.png


DDownload:
2160p DTS-HD:
B79C06CF52.png

2160p EAC3:
5EDC8C82AD.png


To view the content, you need to Sign In or Register.
 
Oben