Welcome to our Community
Wanting to join the rest of our members? Feel free to sign up today.
Sign up

Wie der Wind sich hebt | Kaze Tachinu [Ger-Jap-Dub][Ger-Sub][720p|1080p][E-AC-3|DTS-HD][8bits|10bits][x264|x265|AV1][BluRay] - AO

Kleinmike

Uploader
Otaku König
21 März 2021
238
3.249
93


Wie der Wind sich hebt | Kaze Tachinu



8234_300.webp



oie_bchbujbgr3vm-png.30595
anisearch.com schrieb:
»Wie der Wind sich hebt« handelt von dem Flugzeugbauingenieur Jiro Horikoshi, der schon als kleiner Junge immer wieder Träume vom Fliegen hat und in diesen Gianni Caproni trifft, einen italienischen Flugzeugbauer, der ihm immer wieder Ratschläge gibt. Als Student begegnet er Naoko, die er jedoch schon bald wieder aus den Augen verliert. Er beginnt bei einem Flugzeughersteller zu arbeiten und weckt dort bald die Aufmerksamkeit seiner Vorgesetzten. Als die Firma starke Schwierigkeiten wegen ihres technischen Rückstandes hat, wird Jiro zu einem Austausch nach Deutschland geschickt.

Eines Tages trifft Jiro in einem Ferienort Naoko wieder. Die beiden verlieben sich und bald folgt die Verlobung. Allerdings hat Naoko Tuberkulose und weigert sich zu heiraten, bis sie sich erholt hat. Jiro kann beim Flugzeugbau Erfolge verzeichnen und steigt in der Firma auf. Als es Naoko etwas besser geht, flieht sie aus ihrem Kurort und die beiden heirateten. Trotz ihres immer noch angeschlagenen Zustandes bleibt Naoko bei Jiro, der in seiner Arbeit aufgeht. Doch dann verschlechtert sich Naokos Gesundheit wieder …
Quelle: https://www.anisearch.de/anime/8234,kaze-tachinu



oie_bchbujbgr3vm1-png.30596


Spieldauer: ~2h 7min
Genre: Drama
Nebengenres: Alltagsleben, Romanze
Jahr: 2013
Sprache:
Deutsch.png
Deutsch,
Japanisch.png
Japanisch
Untertitel:
Deutsch.png
Deutsch
Größe: ~4.58GiB | ~12.2GiB | ~15.0GiB | ~7.33GiB
Format: MKV
Auflösung: 720p (16:9) | 1080p (16:9)
Videocodec: x264(AVC) | x265(HEVC) | AV1(AOM)
Audiocodec: DTS-HD | E-AC-3
Releasegruppe: Anime Otakus
Hoster:
rapidgator-gif.30742
Rapidgator,
ddownload-gif.30720
ddownload


oie_bchbujbgr3vm2-png.30597

Rich (BBCode):

Format                                   : Matroska
Format version                           : Version 4
File size                                : 4.58 GiB
Duration                                 : 2 h 6 min
Overall bit rate                         : 5 180 kb/s
Writing application                      : no_variable_data
Writing library                          : no_variable_data
Release by                               : Anime Otakus
Version                                  : 1.2

Video
ID                                       : 1
Format                                   : AVC
Format/Info                              : Advanced Video Codec
Format profile                           : [email protected]
Format settings                          : CABAC / 8 Ref Frames
Format settings, CABAC                   : Yes
Format settings, Reference frames        : 8 frames
Codec ID                                 : V_MPEG4/ISO/AVC
Duration                                 : 2 h 6 min
Bit rate                                 : 3 797 kb/s
Width                                    : 1 280 pixels
Height                                   : 720 pixels
Display aspect ratio                     : 16:9
Frame rate mode                          : Constant
Frame rate                               : 23.976 (24000/1001) FPS
Color space                              : YUV
Chroma subsampling                       : 4:2:0
Bit depth                                : 8 bits
Scan type                                : Progressive
Bits/(Pixel*Frame)                       : 0.172
Stream size                              : 3.36 GiB (73%)
Language                                 : English
Default                                  : No
Forced                                   : No
Color range                              : Limited
Color primaries                          : BT.709
Transfer characteristics                 : BT.709
Matrix coefficients                      : BT.709

Audio #1
ID                                       : 4
Format                                   : E-AC-3
Format/Info                              : Enhanced AC-3
Commercial name                          : Dolby Digital Plus
Codec ID                                 : A_EAC3
Duration                                 : 2 h 6 min
Bit rate mode                            : Constant
Bit rate                                 : 640 kb/s
Channel(s)                               : 2 channels
Channel layout                           : L R
Sampling rate                            : 48.0 kHz
Frame rate                               : 31.250 FPS (1536 SPF)
Bit depth                                : 32 bits
Compression mode                         : Lossy
Delay relative to video                  : -5 ms
Stream size                              : 580 MiB (12%)
Title                                    : Stereo
Language                                 : German
Service kind                             : Complete Main
Default                                  : Yes
Forced                                   : No

Audio #2
ID                                       : 5
Format                                   : E-AC-3
Format/Info                              : Enhanced AC-3
Commercial name                          : Dolby Digital Plus
Codec ID                                 : A_EAC3
Duration                                 : 2 h 6 min
Bit rate mode                            : Constant
Bit rate                                 : 640 kb/s
Channel(s)                               : 2 channels
Channel layout                           : L R
Sampling rate                            : 48.0 kHz
Frame rate                               : 31.250 FPS (1536 SPF)
Bit depth                                : 32 bits
Compression mode                         : Lossy
Delay relative to video                  : -5 ms
Stream size                              : 580 MiB (12%)
Title                                    : Stereo
Language                                 : Japanese
Service kind                             : Complete Main
Default                                  : No
Forced                                   : No

Text #1
ID                                       : 2
Format                                   : PGS
Muxing mode                              : zlib
Codec ID                                 : S_HDMV/PGS
Codec ID/Info                            : Picture based subtitle format used on BDs/HD-DVDs
Title                                    : German Full
Language                                 : German
Default                                  : No
Forced                                   : No

Text #2
ID                                       : 3
Format                                   : PGS
Muxing mode                              : zlib
Codec ID                                 : S_HDMV/PGS
Codec ID/Info                            : Picture based subtitle format used on BDs/HD-DVDs
Title                                    : German Forced
Language                                 : German
Default                                  : Yes
Forced                                   : No

Menu
00:00:00.000                             : :Chapter 01
00:11:28.854                             : :Chapter 02
00:20:34.399                             : :Chapter 03
00:30:20.527                             : :Chapter 04
00:41:46.337                             : :Chapter 05
00:53:13.690                             : :Chapter 06
01:04:38.791                             : :Chapter 07
01:13:45.671                             : :Chapter 08
01:22:28.526                             : :Chapter 09
01:32:53.401                             : :Chapter 10
01:46:14.951                             : :Chapter 11
01:54:37.120                             : :Chapter 12
02:03:10.883                             : :Chapter 13
Rich (BBCode):

Format                                   : Matroska
Format version                           : Version 4
File size                                : 12.2 GiB
Duration                                 : 2 h 6 min
Overall bit rate mode                    : Variable
Overall bit rate                         : 13.8 Mb/s
Writing application                      : no_variable_data
Writing library                          : no_variable_data
Release by                               : Anime Otakus
Version                                  : 1.2

Video
ID                                       : 1
Format                                   : AVC
Format/Info                              : Advanced Video Codec
Format profile                           : [email protected]
Format settings                          : CABAC / 12 Ref Frames
Format settings, CABAC                   : Yes
Format settings, Reference frames        : 12 frames
Codec ID                                 : V_MPEG4/ISO/AVC
Duration                                 : 2 h 6 min
Bit rate                                 : 11.0 Mb/s
Width                                    : 1 920 pixels
Height                                   : 1 080 pixels
Display aspect ratio                     : 16:9
Frame rate mode                          : Constant
Frame rate                               : 23.976 (24000/1001) FPS
Color space                              : YUV
Chroma subsampling                       : 4:2:0
Bit depth                                : 8 bits
Scan type                                : Progressive
Bits/(Pixel*Frame)                       : 0.221
Stream size                              : 9.72 GiB (79%)
Language                                 : English
Default                                  : No
Forced                                   : No
Color range                              : Limited
Color primaries                          : BT.709
Transfer characteristics                 : BT.709
Matrix coefficients                      : BT.709

Audio #1
ID                                       : 4
Format                                   : DTS XLL
Format/Info                              : Digital Theater Systems
Commercial name                          : DTS-HD Master Audio
Codec ID                                 : A_DTS
Duration                                 : 2 h 6 min
Bit rate mode                            : Variable
Bit rate                                 : 1 418 kb/s
Channel(s)                               : 2 channels
Channel layout                           : L R
Sampling rate                            : 48.0 kHz
Frame rate                               : 93.750 FPS (512 SPF)
Bit depth                                : 24 bits
Compression mode                         : Lossless
Stream size                              : 1.25 GiB (10%)
Title                                    : Stereo
Language                                 : German
Default                                  : Yes
Forced                                   : No

Audio #2
ID                                       : 5
Format                                   : DTS XLL
Format/Info                              : Digital Theater Systems
Commercial name                          : DTS-HD Master Audio
Codec ID                                 : A_DTS
Duration                                 : 2 h 6 min
Bit rate mode                            : Variable
Bit rate                                 : 1 413 kb/s
Channel(s)                               : 2 channels
Channel layout                           : L R
Sampling rate                            : 48.0 kHz
Frame rate                               : 93.750 FPS (512 SPF)
Bit depth                                : 24 bits
Compression mode                         : Lossless
Stream size                              : 1.25 GiB (10%)
Title                                    : Stereo
Language                                 : Japanese
Default                                  : No
Forced                                   : No

Text #1
ID                                       : 2
Format                                   : PGS
Muxing mode                              : zlib
Codec ID                                 : S_HDMV/PGS
Codec ID/Info                            : Picture based subtitle format used on BDs/HD-DVDs
Duration                                 : 2 h 6 min
Bit rate                                 : 22.3 kb/s
Count of elements                        : 2386
Stream size                              : 20.1 MiB (0%)
Title                                    : German Full
Language                                 : German
Default                                  : No
Forced                                   : No

Text #2
ID                                       : 3
Format                                   : PGS
Muxing mode                              : zlib
Codec ID                                 : S_HDMV/PGS
Codec ID/Info                            : Picture based subtitle format used on BDs/HD-DVDs
Duration                                 : 2 h 6 min
Bit rate                                 : 674 b/s
Count of elements                        : 96
Stream size                              : 624 KiB (0%)
Title                                    : German Forced
Language                                 : German
Default                                  : Yes
Forced                                   : No

Menu
00:00:00.000                             : :Chapter 01
00:11:28.854                             : :Chapter 02
00:20:34.399                             : :Chapter 03
00:30:20.527                             : :Chapter 04
00:41:46.337                             : :Chapter 05
00:53:13.690                             : :Chapter 06
01:04:38.791                             : :Chapter 07
01:13:45.671                             : :Chapter 08
01:22:28.526                             : :Chapter 09
01:32:53.401                             : :Chapter 10
01:46:14.951                             : :Chapter 11
01:54:37.120                             : :Chapter 12
02:03:10.883                             : :Chapter 13
Rich (BBCode):

Format                                   : Matroska
Format version                           : Version 4
File size                                : 15.0 GiB
Duration                                 : 2 h 6 min
Overall bit rate mode                    : Variable
Overall bit rate                         : 16.9 Mb/s
Writing application                      : no_variable_data
Writing library                          : no_variable_data
Release by                               : Anime Otakus
Version                                  : 1.2

Video
ID                                       : 1
Format                                   : HEVC
Format/Info                              : High Efficiency Video Coding
Format profile                           : Main [email protected]@Main
Codec ID                                 : V_MPEGH/ISO/HEVC
Duration                                 : 2 h 6 min
Width                                    : 1 920 pixels
Height                                   : 1 080 pixels
Display aspect ratio                     : 16:9
Frame rate mode                          : Constant
Frame rate                               : 23.976 (24000/1001) FPS
Color space                              : YUV
Chroma subsampling                       : 4:2:0 (Type 0)
Bit depth                                : 10 bits
Language                                 : English
Default                                  : No
Forced                                   : No
Color range                              : Limited

Audio #1
ID                                       : 4
Format                                   : DTS XLL
Format/Info                              : Digital Theater Systems
Commercial name                          : DTS-HD Master Audio
Codec ID                                 : A_DTS
Duration                                 : 2 h 6 min
Bit rate mode                            : Variable
Channel(s)                               : 2 channels
Channel layout                           : L R
Sampling rate                            : 48.0 kHz
Frame rate                               : 93.750 FPS (512 SPF)
Bit depth                                : 24 bits
Compression mode                         : Lossless
Title                                    : Stereo
Language                                 : German
Default                                  : Yes
Forced                                   : No

Audio #2
ID                                       : 5
Format                                   : DTS XLL
Format/Info                              : Digital Theater Systems
Commercial name                          : DTS-HD Master Audio
Codec ID                                 : A_DTS
Duration                                 : 2 h 6 min
Bit rate mode                            : Variable
Channel(s)                               : 2 channels
Channel layout                           : L R
Sampling rate                            : 48.0 kHz
Frame rate                               : 93.750 FPS (512 SPF)
Bit depth                                : 24 bits
Compression mode                         : Lossless
Title                                    : Stereo
Language                                 : Japanese
Default                                  : No
Forced                                   : No

Text #1
ID                                       : 2
Format                                   : PGS
Muxing mode                              : zlib
Codec ID                                 : S_HDMV/PGS
Codec ID/Info                            : Picture based subtitle format used on BDs/HD-DVDs
Title                                    : German Full
Language                                 : German
Default                                  : No
Forced                                   : No

Text #2
ID                                       : 3
Format                                   : PGS
Muxing mode                              : zlib
Codec ID                                 : S_HDMV/PGS
Codec ID/Info                            : Picture based subtitle format used on BDs/HD-DVDs
Title                                    : German Forced
Language                                 : German
Default                                  : Yes
Forced                                   : No

Menu
00:00:00.000                             : :Chapter 01
00:11:28.854                             : :Chapter 02
00:20:34.399                             : :Chapter 03
00:30:20.527                             : :Chapter 04
00:41:46.337                             : :Chapter 05
00:53:13.690                             : :Chapter 06
01:04:38.791                             : :Chapter 07
01:13:45.671                             : :Chapter 08
01:22:28.526                             : :Chapter 09
01:32:53.401                             : :Chapter 10
01:46:14.951                             : :Chapter 11
01:54:37.120                             : :Chapter 12
02:03:10.883                             : :Chapter 13
Rich (BBCode):

Format                                   : Matroska
Format version                           : Version 4
File size                                : 7.33 GiB
Duration                                 : 2 h 6 min
Overall bit rate mode                    : Variable
Overall bit rate                         : 8 283 kb/s
Writing application                      : no_variable_data
Writing library                          : no_variable_data
Release by                               : Anime Otakus
Version                                  : 1.2

Video
ID                                       : 1
Format                                   : AV1
Format/Info                              : AOMedia Video 1
Format profile                           : [email protected]
Codec ID                                 : V_AV1
Duration                                 : 2 h 6 min
Bit rate                                 : 5 439 kb/s
Width                                    : 1 920 pixels
Height                                   : 1 080 pixels
Display aspect ratio                     : 16:9
Frame rate mode                          : Constant
Frame rate                               : 23.976 (24000/1001) FPS
Color space                              : YUV
Chroma subsampling                       : 4:2:0
Bit depth                                : 10 bits
Bits/(Pixel*Frame)                       : 0.109
Stream size                              : 4.81 GiB (66%)
Default                                  : No
Forced                                   : No
Color range                              : Limited
Color primaries                          : BT.709
Transfer characteristics                 : BT.709
Matrix coefficients                      : BT.709

Audio #1
ID                                       : 4
Format                                   : DTS XLL
Format/Info                              : Digital Theater Systems
Commercial name                          : DTS-HD Master Audio
Codec ID                                 : A_DTS
Duration                                 : 2 h 6 min
Bit rate mode                            : Variable
Bit rate                                 : 1 418 kb/s
Channel(s)                               : 2 channels
Channel layout                           : L R
Sampling rate                            : 48.0 kHz
Frame rate                               : 93.750 FPS (512 SPF)
Bit depth                                : 24 bits
Compression mode                         : Lossless
Stream size                              : 1.25 GiB (17%)
Title                                    : Stereo
Language                                 : German
Default                                  : Yes
Forced                                   : No

Audio #2
ID                                       : 5
Format                                   : DTS XLL
Format/Info                              : Digital Theater Systems
Commercial name                          : DTS-HD Master Audio
Codec ID                                 : A_DTS
Duration                                 : 2 h 6 min
Bit rate mode                            : Variable
Bit rate                                 : 1 413 kb/s
Channel(s)                               : 2 channels
Channel layout                           : L R
Sampling rate                            : 48.0 kHz
Frame rate                               : 93.750 FPS (512 SPF)
Bit depth                                : 24 bits
Compression mode                         : Lossless
Stream size                              : 1.25 GiB (17%)
Title                                    : Stereo
Language                                 : Japanese
Default                                  : No
Forced                                   : No

Text #1
ID                                       : 2
Format                                   : PGS
Muxing mode                              : zlib
Codec ID                                 : S_HDMV/PGS
Codec ID/Info                            : Picture based subtitle format used on BDs/HD-DVDs
Duration                                 : 2 h 6 min
Bit rate                                 : 22.3 kb/s
Count of elements                        : 2386
Stream size                              : 20.1 MiB (0%)
Title                                    : German Full
Language                                 : German
Default                                  : No
Forced                                   : No

Text #2
ID                                       : 3
Format                                   : PGS
Muxing mode                              : zlib
Codec ID                                 : S_HDMV/PGS
Codec ID/Info                            : Picture based subtitle format used on BDs/HD-DVDs
Duration                                 : 2 h 6 min
Bit rate                                 : 674 b/s
Count of elements                        : 96
Stream size                              : 624 KiB (0%)
Title                                    : German Forced
Language                                 : German
Default                                  : Yes
Forced                                   : No

Menu
00:00:00.000                             : :Chapter 01
00:11:28.854                             : :Chapter 02
00:20:34.399                             : :Chapter 03
00:30:20.527                             : :Chapter 04
00:41:46.337                             : :Chapter 05
00:53:13.690                             : :Chapter 06
01:04:38.791                             : :Chapter 07
01:13:45.671                             : :Chapter 08
01:22:28.526                             : :Chapter 09
01:32:53.401                             : :Chapter 10
01:46:14.951                             : :Chapter 11
01:54:37.120                             : :Chapter 12
02:03:10.883                             : :Chapter 13



oie_bchbujbgr3vm3-png.30598

cooltext396117611400625-png.30739

djclne9-png.30614
6E7AE15C2A.png

zt2lbs3-png.30611
2DA891AA9A.png

cfa5dsl-png.30616
dm5wkw6-png.30611
3932121DC1.png

cfa5dsl1-png.30874
dm5wkw6-png.30611
C9E76253FB.png


cooltext3961176114006251-png.30741

djclne9-png.30614
A5BE70BC91.png

zt2lbs3-png.30611
E09FE16D79.png

cfa5dsl-png.30616
dm5wkw6-png.30611
732EBFBA2B.png

cfa5dsl1-png.30874
dm5wkw6-png.30611
8BD10042EE.png


To view the content, you need to Sign In or Register.