Wir verwenden Cookies, um deinen Aufenthalt auf Animes.so möglichst angenehm gestalten zu können. Mehr erfahren

Willkommen in Gravity Falls S02 [Ger-Eng-Dub][Eng-Sub][1080p][21/21][WebRip] - Netflix

Dieses Thema im Forum "Zeichentrick Serien" wurde erstellt von Ta@, 24. Juni 2018.

  1. Ta@

    Ta@ Erfahrener Otaku Otaku König

    Registriert seit:
    7. Juli 2016
    Beiträge:
    215
    Zustimmungen:
    4.024
    Willkommen in Gravity Falls Staffel 2
    Gravity Falls Season 2

    [​IMG]
    [​IMG]
    Die zweite Staffel geht dort weiter, wo die erste Staffel aufgehört hat. Die ersten 12 Episoden konzentrieren sich hauptsächlich auf Dipper, Mabel, Soos und Wendy, die an der Entdeckung der Identität des Autors der Zeitschriften arbeiten, während Stan weiter daran arbeitet, das mysteriöse Portal unter dem Mystery Shack zu betreiben. Die letzten 8 Episoden konzentrieren sich in erster Linie auf die Bande, die versucht, Bill Cipher zu stoppen, einen Traumdämon mit unendlicher Macht, der die Welt mit Verrücktheit erobern will.




    Folgen: 21/21
    Größe pro Folge: ~730 MB
    Folgendauer: 20-24 Min
    Releaser: Ta@
    Art: Lizenzrelease
    Sprache: Deutsch, Englisch
    Untertitel: Deutsch(Forced), Englisch(Full)
    Auflösung: 1920x1080
    Format: MKV
    Quelle: WebRip
    Videocodec: x264
    Farbtiefe: 8Bit
    Audiocodec: AC3
    Hoster: Share-Online

    [​IMG]
    Code:
    General Complete name : [Ta@]Willkommen_in_Gravity_Falls_S02E01_[Web,1080p,AC3].mkv Format : Matroska Format version : Version 4 / Version 2 File size : 690 MiB Duration : 22 min 55 s Overall bit rate mode : Variable Overall bit rate : 4 204 kb/s Encoded date : UTC 2018-06-23 10:29:30 Writing application : mkvmerge v10.0.0 ('To Drown In You') 64bit Writing library : libebml v1.3.4 + libmatroska v1.4.5 Attachments : lt.ttf / ltf.ttf Video ID : 1 Format : AVC Format/Info : Advanced Video Codec Format profile : Main@L4 Format settings : CABAC / 3 Ref Frames Format settings, CABAC : Yes Format settings, RefFrames : 3 frames Codec ID : V_MPEG4/ISO/AVC Duration : 22 min 55 s Bit rate mode : Variable Bit rate : 4 020 kb/s Maximum bit rate : 6 030 kb/s Width : 1 920 pixels Height : 1 080 pixels Display aspect ratio : 16:9 Frame rate mode : Constant Frame rate : 23.976 (24000/1001) FPS Color space : YUV Chroma subsampling : 4:2:0 Bit depth : 8 bits Scan type : Progressive Bits/(Pixel*Frame) : 0.081 Stream size : 647 MiB (94%) Writing library : x264 core 118 Encoding settings : cabac=1 / ref=3 / deblock=1:0:0 / analyse=0x1:0x111 / me=umh / subme=10 / psy=1 / psy_rd=1.00:0.00 / mixed_ref=1 / me_range=24 / chroma_me=1 / trellis=2 / 8x8dct=0 / cqm=0 / deadzone=21,11 / fast_pskip=1 / chroma_qp_offset=-2 / threads=6 / sliced_threads=0 / nr=0 / decimate=1 / interlaced=0 / bluray_compat=0 / constrained_intra=0 / bframes=2 / b_pyramid=0 / b_adapt=2 / b_bias=0 / direct=3 / weightb=1 / open_gop=0 / weightp=2 / keyint=48 / keyint_min=25 / scenecut=0 / intra_refresh=0 / rc_lookahead=0 / rc=2pass / mbtree=1 / bitrate=4020 / ratetol=1.0 / qcomp=0.50 / qpmin=6 / qpmax=51 / qpstep=4 / cplxblur=20.0 / qblur=0.5 / vbv_maxrate=6030 / vbv_bufsize=8040 / nal_hrd=vbr / ip_ratio=1.40 / aq=1:1.00 Default : Yes Forced : No Audio #1 ID : 2 Format : E-AC-3 Format/Info : Enhanced Audio Coding 3 Codec ID : A_EAC3 Duration : 22 min 55 s Bit rate mode : Constant Bit rate : 128 kb/s Channel(s) : 2 channels Channel positions : Front: L R Sampling rate : 48.0 kHz Frame rate : 187.500 FPS (256 SPF) Compression mode : Lossy Stream size : 21.0 MiB (3%) Title : German Language : German Service kind : Complete Main Default : Yes Forced : No Audio #2 ID : 3 Format : E-AC-3 Format/Info : Enhanced Audio Coding 3 Codec ID : A_EAC3 Duration : 22 min 55 s Bit rate mode : Constant Bit rate : 128 kb/s Channel(s) : 2 channels Channel positions : Front: L R Sampling rate : 48.0 kHz Frame rate : 187.500 FPS (256 SPF) Compression mode : Lossy Stream size : 21.0 MiB (3%) Title : English Language : English Service kind : Complete Main Default : No Forced : No Text #1 ID : 4 Format : UTF-8 Codec ID : S_TEXT/UTF8 Codec ID/Info : UTF-8 Plain Text Duration : 17 min 25 s Bit rate : 0 b/s Count of elements : 3 Stream size : 84.0 Bytes (0%) Title : German [Forced] Language : German Default : Yes Forced : Yes Text #2 ID : 5 Format : UTF-8 Codec ID : S_TEXT/UTF8 Codec ID/Info : UTF-8 Plain Text Duration : 22 min 28 s Bit rate : 91 b/s Count of elements : 876 Stream size : 15.1 KiB (0%) Title : English [SDH] Language : English Default : No Forced : No ​


    Episodenliste
    Code:
    1. Zombie-Karaoke 2. Die Höhle des Autoren 3. Der Minigolf-Wettbewerb 4. Die Socken-Oper 5. Eine Freundin für Soos 6. Der kleine Horror-Geschenkeladen 7. Die Gesellschaft des Blinden Auges 8. Der Zeitwunsch 9. Der Gott der Liebe 10. Das Northwest-Anwesen 11. Nicht wonach es aussieht 12. Die Geschichte der zwei Stans 13. Dungeons, Dungeons und noch mehr Dungeons 14. Die Bürgermeisterwahl 15. Mabel und das letzte Einhorn 16. Die Stan-Pines-Flirtmethode 17. Dipper und Mabel gegen die Zukunft 18. Seltsamageddon 1: Wettlauf mit der Zeit 19. Seltsamageddon 2: Flucht vor der Realität 20. Seltsamageddon 3: Gravity Falls gehört uns 21. Seltsamageddon 4: In den Wäldern ​

    Status:[​IMG]

    Geschützter Bereich
    Registriere dich oder logge dich ein, um den Inhalt sehen zu können
     
    ItsMeee, 420, Zarroc1 und 2 anderen gefällt das.