• Wie Du sicherlich schon gesehen hast, hat sich Animes.so gewaltig verändert. Klicke hier um mehr Informationen darüber zu erhalten.

Ya Boy Kongming! [Jap-Dub][Eng-Sub][720p|1080p][Web-DL] - Hidive

Azugo

H͓̽u͓̽g͓̽o͓̽ ͓̽&͓̽ ͓̽A͓̽z͓̽u͓̽r͓̽a͓̽
Premium
Otaku Gott
Uploader
Beiträge
3.091
Punkte Reaktionen
21.078
Punkte
113

Ya Boy Kongming!



16792.webp



oie_bchbujbgr3vm-png.30595

anisearch.com schrieb:
Sein ganzes Leben lang hat General Kongming für die Drei Königreiche gekämpft. In unzähligen Kämpfen machte er sich einen Namen, bis sein Ruf als brillanter Stratege in jeder Ecke des Landes bekannt war. Doch auf seinem Sterbebett hat er nur einen einzigen Wunsch: Er möchte in einer Zeit wiedergeboren werden, in der Frieden herrscht.

Sein Wunsch erfüllt sich, wenn auch nicht ganz so, wie erwartet, denn plötzlich findet der ernsthafte Mann sich mitten in der modernen Partyhauptstadt Tokio wieder! Wird es ihm gelingen, in dieser neuen Welt zurechtzukommen?
Quelle: https://www.anisearch.de/anime/16792


oie_bchbujbgr3vm1-png.30596


Spieldauer: ~24min
Genre: Komödie
Nebengenres: Alltagsleben, Fantasy
Sprache:
Japanisch.png
Japanisch
Untertitel:
Englisch.png
Englisch
Größe pro Folge: ~327mb
Episodenanzahl: 12/12
Format: MKV
Auflösung: , 1080p (16:9)
Videocodec: H264 (AVC)
Audiocodec: AAC
Releasegruppe: Anime Otakus
Hoster:
rapidgator-gif.30742
Rapidgator,
ddownload-gif.30720
ddownload


oie_bchbujbgr3vm2-png.30597

Code:
[color=Turquoise]Format                                   : Matroska
Format version                           : Version 4
File size                                : 327 MiB
Duration                                 : 24 min 32 s
Overall bit rate                         : 1 861 kb/s
Encoded date                             : UTC 2022-06-23 09:53:51
Writing application                      : mkvmerge v68.0.0 ('The Curtain') 64-bit
Writing library                          : libebml v1.4.2 + libmatroska v1.6.4

Video
ID                                       : 1
Format                                   : AVC
Format/Info                              : Advanced Video Codec
Format profile                           : [email protected]
Format settings                          : CABAC / 4 Ref Frames
Format settings, CABAC                   : Yes
Format settings, Reference frames        : 4 frames
Codec ID                                 : V_MPEG4/ISO/AVC
Duration                                 : 24 min 32 s
Bit rate                                 : 1 700 kb/s
Width                                    : 1 920 pixels
Height                                   : 1 080 pixels
Display aspect ratio                     : 16:9
Frame rate mode                          : Constant
Frame rate                               : 23.976 (24000/1001) FPS
Color space                              : YUV
Chroma subsampling                       : 4:2:0
Bit depth                                : 8 bits
Scan type                                : Progressive
Bits/(Pixel*Frame)                       : 0.034
Stream size                              : 298 MiB (91%)
Writing library                          : x264 core 148
Encoding settings                        : cabac=1 / ref=3 / deblock=1:0:0 / analyse=0x3:0x113 / me=hex / subme=7 / psy=1 / psy_rd=1.00:0.00 / mixed_ref=1 / me_range=16 / chroma_me=1 / trellis=1 / 8x8dct=1 / cqm=0 / deadzone=21,11 / fast_pskip=1 / chroma_qp_offset=-2 / threads=34 / lookahead_threads=5 / sliced_threads=0 / nr=0 / decimate=1 / interlaced=0 / bluray_compat=0 / constrained_intra=0 / bframes=3 / b_pyramid=2 / b_adapt=1 / b_bias=0 / direct=1 / weightb=1 / open_gop=0 / weightp=2 / keyint=90 / keyint_min=9 / scenecut=0 / intra_refresh=0 / rc_lookahead=40 / rc=crf / mbtree=1 / crf=22.0 / qcomp=0.60 / qpmin=0 / qpmax=69 / qpstep=4 / vbv_maxrate=13500 / vbv_bufsize=135000 / crf_max=0.0 / nal_hrd=none / filler=0 / ip_ratio=1.40 / aq=1:1.00
Default                                  : Yes
Forced                                   : No

Audio
ID                                       : 2
Format                                   : AAC LC
Format/Info                              : Advanced Audio Codec Low Complexity
Codec ID                                 : A_AAC-2
Duration                                 : 24 min 32 s
Bit rate                                 : 159 kb/s
Channel(s)                               : 2 channels
Channel layout                           : L R
Sampling rate                            : 48.0 kHz
Frame rate                               : 46.875 FPS (1024 SPF)
Compression mode                         : Lossy
Delay relative to video                  : -43 ms
Stream size                              : 28.0 MiB (9%)
Default                                  : Yes
Forced                                   : No

Text
ID                                       : 3
Format                                   : ASS
Codec ID                                 : S_TEXT/ASS
Codec ID/Info                            : Advanced Sub Station Alpha
Duration                                 : 23 min 38 s
Bit rate                                 : 170 b/s
Count of elements                        : 605
Compression mode                         : Lossless
Stream size                              : 29.5 KiB (0%)
Default                                  : Yes
Forced                                   : No
[/color]



oie_bchbujbgr3vm3-png.30598

cooltext396117611400625-png.30739

54B77E39C9.png

cooltext3961176114006251-png.30741

4BE73ED4D7.png

To view the content, you need to Sign In or Register.

 
Oben