1. Die erweiterte Suche funktioniert wieder. Die LiveSearch ist vorübergehend deaktiviert

Wir verwenden Cookies, um deinen Aufenthalt auf Animes.so möglichst angenehm gestalten zu können. Mehr erfahren

Yu Gi Oh GX! [Ger-Dub][x264][544p][DVDRip] - Markus900

Dieses Thema im Forum "Serien (GerDub)" wurde erstellt von haltdiefresse, 8. Nov. 2019.

  1. haltdiefresse

    haltdiefresse Neuling auf Bewährung Otaku Amateur

    Registriert seit:
    19. Aug. 2014
    Beiträge:
    7
    Zustimmungen:
    29
    Yu Gi Oh GX! Staffel 1 - 4

    [​IMG]

    Kurzbeschreibung:
    Sprache: Deutsch
    Untertitel: -
    Spieldauer: 20 min pro Folge
    Größe: ca. 200 MB pro Folge
    Episodenanzahl: 180
    Format: mkv / x264
    Audio: aac
    Studio: KSM Anime
    Auflösung: 720x544
    Source: DVD
    Releaser: Markus900


    Mediainfo:
    Format : Matroska
    Format version : Version 4
    File size : 199 MiB
    Duration : 20 min 20 s
    Overall bit rate : 1 370 kb/s
    Encoded date : UTC 2017-03-15 12:38:35
    Writing application : mkvmerge v9.7.1 ('Pandemonium') 64bit
    Writing library : libebml v1.3.4 + libmatroska v1.4.5

    Video
    ID : 1
    Format : AVC
    Format/Info : Advanced Video Codec
    Format profile : High@L3.1
    Format settings : CABAC / 8 Ref Frames
    Format settings, CABAC : Yes
    Format settings, ReFrames : 8 frames
    Codec ID : V_MPEG4/ISO/AVC
    Duration : 20 min 20 s
    Bit rate : 1 240 kb/s
    Width : 720 pixels
    Height : 544 pixels
    Display aspect ratio : 4:3
    Frame rate mode : Constant
    Frame rate : 25.000 FPS
    Color space : YUV
    Chroma subsampling : 4:2:0
    Bit depth : 8 bits
    Scan type : Progressive
    Bits/(Pixel*Frame) : 0.127
    Stream size : 180 MiB (90%)
    Writing library : x264 core 148 r2744 b97ae06
    Encoding settings : cabac=1 / ref=8 / deblock=1:1:1 / analyse=0x3:0x133 / me=umh / subme=6 / psy=1 / psy_rd=0.60:0.00 / mixed_ref=1 / me_range=16 / chroma_me=1 / trellis=2 / 8x8dct=1 / cqm=0 / deadzone=21,11 / fast_pskip=1 / chroma_qp_offset=-2 / threads=6 / lookahead_threads=1 / sliced_threads=0 / nr=0 / decimate=1 / interlaced=0 / bluray_compat=0 / constrained_intra=0 / bframes=16 / b_pyramid=2 / b_adapt=1 / b_bias=0 / direct=3 / weightb=0 / open_gop=0 / weightp=2 / keyint=250 / keyint_min=25 / scenecut=40 / intra_refresh=0 / rc_lookahead=40 / rc=2pass / mbtree=1 / bitrate=1240 / ratetol=1.0 / qcomp=0.60 / qpmin=10 / qpmax=51 / qpstep=4 / cplxblur=20.0 / qblur=0.5 / ip_ratio=1.40 / aq=1:0.00
    Default : Yes
    Forced : No

    Audio
    ID : 2
    Format : AAC LC
    Format/Info : Advanced Audio Codec Low Complexity
    Codec ID : A_AAC-2
    Duration : 20 min 19 s
    Bit rate : 128 kb/s
    Channel(s) : 2 channels
    Channel layout : L R
    Sampling rate : 48.0 kHz
    Frame rate : 46.875 FPS (1024 SPF)
    Compression mode : Lossy
    Stream size : 18.6 MiB (9%)
    Language : German
    Default : Yes
    Forced : No



    Hinweis: Ab Staffel 4 Folge 157 ger sub und Folge 156 ist eng sub

    Hoster: Uploaded.to + Rapidgator.net

    Screenshots:
    [​IMG]

    [​IMG]
    Status: S01 [​IMG] S02 [​IMG] S03 [​IMG] S04 [​IMG]
    Geschützter Bereich
    Registriere dich oder logge dich ein, um den Inhalt sehen zu können
     
    manuel4193 und Torben10 gefällt das.