Wir verwenden Cookies, um deinen Aufenthalt auf Animes.so möglichst angenehm gestalten zu können. Mehr erfahren

Yuusha ni Narenakatta Ore wa Shibushibu Shuushoku o Ketsui Shimashita. + OVA [Jap-Dub][Ger-Sub][720p|1080p][BluRay] - DSunS

Dieses Thema im Forum "Anime Serien (Deutsche Untertitel)" wurde erstellt von Sagiri-chan, 24. Juli 2015.

  1. Sagiri-chan

    Sagiri-chan Offizieller Bot von Animes.so Animes.so Staff

    Registriert seit:
    9. Aug. 2017
    Beiträge:
    3.144
    Zustimmungen:
    4.285

    Yuusha ni Narenakatta Ore wa Shibushibu Shuushoku o Ketsui Shimashita.
    勇者になれなかった俺はしぶしぶ就職を決意しました。
    I, Who Didn't Become a Hero, Reluctantly Decided to Find a Job
    Yuushibu
    I Couldn't Become a Hero, so I Reluctantly Decided to Get a Job
    Yu-sibu



    [​IMG]


    Kurzbeschreibung:


    Sprache: Japanisch
    Untertitel: Deutsch
    Episodenanzahl: 12/12 + 1/1
    Format: .mp4
    Auflösung: 720p & 1080p 10-Bit
    Codec: x264
    Gruppe: Dark Sun Subs
    Hoster: Share-Online ; Uploaded



    Datei Info:
    Code:
    
    
    Format                                   : MPEG-4
    Format profile                           : Base Media / Version 2
    Codec ID                                 : mp42
    File size                                : 372 MiB
    Duration                                 : 23mn 43s
    Overall bit rate mode                    : Variable
    Overall bit rate                         : 2 192 Kbps
    Encoded date                             : UTC 2014-03-05 11:37:47
    Tagged date                              : UTC 2014-03-05 12:21:51
    Writing application                      : HandBrake 0.9.9 2013052900
    
    Video
    ID                                       : 1
    Format                                   : AVC
    Format/Info                              : Advanced Video Codec
    Format profile                           : Main@L4.0
    Format settings, CABAC                   : Yes
    Format settings, ReFrames                : 8 frames
    Codec ID                                 : avc1
    Codec ID/Info                            : Advanced Video Coding
    Duration                                 : 23mn 43s
    Bit rate                                 : 1 940 Kbps
    Width                                    : 1 280 pixels
    Height                                   : 720 pixels
    Display aspect ratio                     : 16:9
    Frame rate mode                          : Variable
    Frame rate                               : 23.976 fps
    Minimum frame rate                       : 23.974 fps
    Maximum frame rate                       : 23.981 fps
    Color space                              : YUV
    Chroma subsampling                       : 4:2:0
    Bit depth                                : 8 bits
    Scan type                                : Progressive
    Bits/(Pixel*Frame)                       : 0.088
    Stream size                              : 329 MiB (88%)
    Writing library                          : x264 core 130 r2273 b3065e6
    Encoding settings                        : cabac=1 / ref=8 / deblock=1:0:0 / analyse=0x1:0x131 / me=umh / subme=9 / psy=1 / psy_rd=1.00:0.00 / mixed_ref=1 / me_range=16 / chroma_me=1 / trellis=2 / 8x8dct=0 / cqm=0 / deadzone=21,11 / fast_pskip=1 / chroma_qp_offset=-2 / threads=6 / lookahead_threads=1 / sliced_threads=0 / nr=0 / decimate=1 / interlaced=0 / bluray_compat=0 / constrained_intra=0 / bframes=3 / b_pyramid=2 / b_adapt=2 / b_bias=0 / direct=3 / weightb=1 / open_gop=0 / weightp=2 / keyint=240 / keyint_min=24 / scenecut=40 / intra_refresh=0 / rc_lookahead=60 / rc=crf / mbtree=1 / crf=16.0 / qcomp=0.60 / qpmin=0 / qpmax=69 / qpstep=4 / vbv_maxrate=20000 / vbv_bufsize=25000 / crf_max=0.0 / nal_hrd=none / ip_ratio=1.40 / aq=1:1.00
    Encoded date                             : UTC 2014-03-05 11:37:47
    Tagged date                              : UTC 2014-03-05 12:21:51
    Color primaries                          : BT.709
    Transfer characteristics                 : BT.709
    Matrix coefficients                      : BT.709
    
    Audio
    ID                                       : 2
    Format                                   : AAC
    Format/Info                              : Advanced Audio Codec
    Format profile                           : LC
    Codec ID                                 : 40
    Duration                                 : 23mn 43s
    Bit rate mode                            : Variable
    Bit rate                                 : 247 Kbps
    Maximum bit rate                         : 368 Kbps
    Channel count                            : 2 channels
    Channel positions                        : Front: L R
    Sampling rate                            : 48.0 KHz
    Compression mode                         : Lossy
    Stream size                              : 42.0 MiB (11%)
    Language                                 : Japanese
    Encoded date                             : UTC 2014-03-05 11:37:47
    Tagged date                              : UTC 2014-03-05 12:21:50
    
    Menu
    ID                                       : 3
    Codec ID                                 : text
    Duration                                 : 23mn 43s
    Encoded date                             : UTC 2014-03-05 11:37:47
    Tagged date                              : UTC 2014-03-05 12:21:51
    Bit rate mode                            : CBR
    
    

    Code:
    
    
    Format                                   : Matroska
    Format version                           : Version 4 / Version 2
    File size                                : 960 MiB
    Duration                                 : 23mn 43s
    Overall bit rate mode                    : Variable
    Overall bit rate                         : 5 658 Kbps
    Encoded date                             : UTC 2014-03-05 11:36:31
    Writing application                      : mkvmerge v6.7.0 ('Back to the Ground') 32bit built on Jan  8 2014 15:03:17
    Writing library                          : libebml v1.3.0 + libmatroska v1.4.1
    Attachment                               : Yes / Yes / Yes / Yes / Yes / Yes / Yes / Yes / Yes / Yes / Yes / Yes / Yes / Yes / Yes / Yes / Yes / Yes / Yes / Yes / Yes / Yes / Yes / Yes / Yes / Yes / Yes / Yes / Yes / Yes / Yes / Yes / Yes / Yes / Yes / Yes
    
    Video
    ID                                       : 1
    Format                                   : AVC
    Format/Info                              : Advanced Video Codec
    Format profile                           : High 10@L5.1
    Format settings, CABAC                   : Yes
    Format settings, ReFrames                : 16 frames
    Codec ID                                 : V_MPEG4/ISO/AVC
    Duration                                 : 23mn 43s
    Width                                    : 1 920 pixels
    Height                                   : 1 080 pixels
    Display aspect ratio                     : 16:9
    Frame rate mode                          : Constant
    Frame rate                               : 23.976 fps
    Color space                              : YUV
    Chroma subsampling                       : 4:2:0
    Bit depth                                : 10 bits
    Scan type                                : Progressive
    Writing library                          : x264 core 138 r2358 9e941d1
    Encoding settings                        : cabac=1 / ref=16 / deblock=1:0:0 / analyse=0x3:0x133 / me=umh / subme=10 / psy=1 / psy_rd=0.80:0.00 / mixed_ref=1 / me_range=32 / chroma_me=1 / trellis=2 / 8x8dct=1 / cqm=0 / deadzone=21,11 / fast_pskip=0 / chroma_qp_offset=-2 / threads=12 / lookahead_threads=3 / sliced_threads=0 / nr=0 / decimate=1 / interlaced=0 / bluray_compat=0 / constrained_intra=0 / bframes=10 / b_pyramid=2 / b_adapt=2 / b_bias=0 / direct=1 / weightb=1 / open_gop=0 / weightp=2 / keyint=250 / keyint_min=23 / scenecut=40 / intra_refresh=0 / rc_lookahead=40 / rc=crf / mbtree=1 / crf=16.0 / qcomp=0.60 / qpmin=0 / qpmax=51 / qpstep=4 / ip_ratio=1.40 / aq=1:0.75
    Language                                 : Japanese
    Default                                  : Yes
    Forced                                   : No
    Matrix coefficients                      : BT.709
    
    Audio
    ID                                       : 2
    Format                                   : FLAC
    Format/Info                              : Free Lossless Audio Codec
    Codec ID                                 : A_FLAC
    Duration                                 : 23mn 43s
    Bit rate mode                            : Variable
    Channel count                            : 2 channels
    Sampling rate                            : 48.0 KHz
    Bit depth                                : 16 bits
    Writing library                          : libFLAC 1.3.0 (UTC 2013-05-26)
    Language                                 : Japanese
    Default                                  : Yes
    Forced                                   : No
    
    Text
    ID                                       : 3
    Format                                   : ASS
    Codec ID                                 : S_TEXT/ASS
    Codec ID/Info                            : Advanced Sub Station Alpha
    Compression mode                         : Lossless
    Default                                  : Yes
    Forced                                   : No
    
    Menu
    00:00:00.000                             : en:Intro
    00:02:02.956                             : en:Episode
    00:21:29.705                             : en:ED
    00:23:02.923                             : en:Outro
    
    




    [​IMG]


    Onlinestatus: 720p[​IMG]/1080p[​IMG]
    Geschützter Bereich
    Registriere dich oder logge dich ein, um den Inhalt sehen zu können
     
    Lasted edited by : 16. Mai 2017
  2. Sagiri-chan

    Sagiri-chan Offizieller Bot von Animes.so Animes.so Staff

    Registriert seit:
    9. Aug. 2017
    Beiträge:
    3.144
    Zustimmungen:
    4.285

Diese Seite empfehlen