Wir verwenden Cookies, um deinen Aufenthalt auf Animes.so möglichst angenehm gestalten zu können. Mehr erfahren

Accel World[Ger-Jap-Dub][Ger-Sub][AC3|DTS-HD][720p|1080p][x264|x265][BluRay] - ABJ

Dieses Thema im Forum "Download Archiv" wurde erstellt von supersonik, 11. März 2021.

  1. supersonik
    supersonik

    Elite Nolife Uploader

    Registriert seit:
    7. Jan. 2018
    Beiträge:
    631
    Zustimmungen:
    27.361

    Accel World
    アクセル・ワールド
    [​IMG]

    Beschreibung:
    Für Haruyuki ist das reale Leben ein Horror. Mit seiner kleinen und stämmigen Figur ist er nicht gerade ein Frauenheld sondern ein beliebtes Opfer für die Schikanen der Schulraudis. Zuflucht findet er in der virtuellen Welt, wo er seiner Leidenschaft, dem Squash nachgehen kann. Nur Kuroyukihime hat es geschafft ihn darin zu schlagen. Das hübsche und beliebte Mädchen macht Haruyuki ein ganz besonderes Angebot, ein Computerprogramm namens Brain Burst, das es ihm ermöglicht im realen Leben die Zeit praktisch anzuhalten. Doch diese Fähigkeit ist nicht umsonst, alle Benutzer müssen regelmäßig gegeneinander antreten und gewinnen sonst sperrt sich das Programm für sie für immer.
    by anisearch.de

    Episoden: 24/24
    Größe: ~900 MB | ~2960 MB | ~2250 MB
    Releaser: Anime BluRay Junkies
    Art: Lizenzrelease
    Sprache: Deutsch | Japanisch
    Untertitel: Deutsch
    Jahr: 2012
    Genres: Action, Ganbatte, Komödie, Mystery, Psychodrama, Romanze, SciFi, Alternative Welt, Martial Arts, Mittelschule, PSI-Kräfte, Schwerter & Co.
    Auflösung: 1280x720 | 1920x1080
    Format: MKV
    Quelle: BluRay
    Videocodec: x264 | x265
    Farbtiefe: 8bit
    Audiocodec: AC3 | DTS-HD
    Publisher: SUNRISE Inc. | Kaze
    Hoster: DDownload | Uploaded


    Mediainfo:
    Code:
    General Unique ID : 221413427362790417103721873366178093124 (0xA692ACCBCCCA46B2E734EEB21DB85844) Complete name : Accel.World.S01E01.German.DL.AC3.720p.BluRay.x264-ABJ.mkv Format : Matroska Format version : Version 4 File size : 893 MiB Duration : 23 min 42 s Overall bit rate : 5 264 kb/s Encoded date : UTC 2021-02-13 23:42:03 Writing application : mkvmerge v53.0.0 ('Fool's Gold') 64-bit Writing library : libebml v1.4.1 + libmatroska v1.6.2 / Lavf58.42.101 VERSION : 1.1 Video ID : 1 Format : AVC Format/Info : Advanced Video Codec Format profile : High@L5 Format settings : CABAC / 12 Ref Frames Format settings, CABAC : Yes Format settings, Reference frames : 12 frames Codec ID : V_MPEG4/ISO/AVC Duration : 23 min 42 s Bit rate : 3 969 kb/s Width : 1 280 pixels Height : 720 pixels Display aspect ratio : 16:9 Frame rate mode : Constant Frame rate : 23.976 (24000/1001) FPS Color space : YUV Chroma subsampling : 4:2:0 Bit depth : 8 bits Scan type : Progressive Bits/(Pixel*Frame) : 0.180 Stream size : 673 MiB (75%) Default : Yes Forced : No Audio #1 ID : 2 Format : AC-3 Format/Info : Audio Coding 3 Commercial name : Dolby Digital Codec ID : A_AC3 Duration : 23 min 42 s Bit rate mode : Constant Bit rate : 640 kb/s Channel(s) : 2 channels Channel layout : L R Sampling rate : 48.0 kHz Frame rate : 31.250 FPS (1536 SPF) Compression mode : Lossy Stream size : 109 MiB (12%) Title : Stereo Language : German Service kind : Complete Main Default : Yes Forced : No Audio #2 ID : 3 Format : AC-3 Format/Info : Audio Coding 3 Commercial name : Dolby Digital Codec ID : A_AC3 Duration : 23 min 42 s Bit rate mode : Constant Bit rate : 640 kb/s Channel(s) : 2 channels Channel layout : L R Sampling rate : 48.0 kHz Frame rate : 31.250 FPS (1536 SPF) Compression mode : Lossy Stream size : 109 MiB (12%) Title : Stereo Language : Japanese Service kind : Complete Main Default : No Forced : No Text #1 ID : 4 Format : PGS Muxing mode : zlib Codec ID : S_HDMV/PGS Codec ID/Info : Picture based subtitle format used on BDs/HD-DVDs Duration : 23 min 40 s Bit rate : 3 491 b/s Count of elements : 51 Stream size : 606 KiB (0%) Language : German Default : Yes Forced : Yes Text #2 ID : 5 Format : PGS Muxing mode : zlib Codec ID : S_HDMV/PGS Codec ID/Info : Picture based subtitle format used on BDs/HD-DVDs Duration : 23 min 40 s Bit rate : 31.2 kb/s Count of elements : 546 Stream size : 5.28 MiB (1%) Language : German Default : No Forced : No Menu 00:00:00.000 : :Chapter 01 00:00:55.346 : :Chapter 02 00:07:58.978 : :Chapter 03 00:22:00.944 : :Chapter 04 00:23:30.951 : :Chapter 05 00:23:41.044 : :Chapter 06 ​
    Code:
    General Unique ID : 275610782558590600715933535216627124104 (0xCF58B4B6AF7A4A095F7B82D9E5AC8788) Complete name : Accel.World.S01E01.German.DL.DTS.1080p.BluRay.x264-ABJ.mkv Format : Matroska Format version : Version 4 File size : 2.96 GiB Duration : 23 min 42 s Overall bit rate mode : Variable Overall bit rate : 17.9 Mb/s Encoded date : UTC 2021-02-13 23:45:21 Writing application : mkvmerge v53.0.0 ('Fool's Gold') 64-bit Writing library : libebml v1.4.1 + libmatroska v1.6.2 / Lavf58.42.101 VERSION : 1.1 Video ID : 1 Format : AVC Format/Info : Advanced Video Codec Format profile : High@L5 Format settings : CABAC / 12 Ref Frames Format settings, CABAC : Yes Format settings, Reference frames : 12 frames Codec ID : V_MPEG4/ISO/AVC Duration : 23 min 42 s Bit rate : 13.6 Mb/s Width : 1 920 pixels Height : 1 080 pixels Display aspect ratio : 16:9 Frame rate mode : Constant Frame rate : 23.976 (24000/1001) FPS Color space : YUV Chroma subsampling : 4:2:0 Bit depth : 8 bits Scan type : Progressive Bits/(Pixel*Frame) : 0.273 Stream size : 2.25 GiB (76%) Default : Yes Forced : No Audio #1 ID : 2 Format : DTS XLL Format/Info : Digital Theater Systems Commercial name : DTS-HD Master Audio Codec ID : A_DTS Duration : 23 min 42 s Bit rate mode : Variable Bit rate : 2 147 kb/s Channel(s) : 2 channels Channel layout : L R Sampling rate : 48.0 kHz Frame rate : 93.750 FPS (512 SPF) Bit depth : 24 bits Compression mode : Lossless Stream size : 364 MiB (12%) Title : Stereo Language : German Default : Yes Forced : No Audio #2 ID : 3 Format : DTS XLL Format/Info : Digital Theater Systems Commercial name : DTS-HD Master Audio Codec ID : A_DTS Duration : 23 min 42 s Bit rate mode : Variable Bit rate : 2 157 kb/s Channel(s) : 2 channels Channel layout : L R Sampling rate : 48.0 kHz Frame rate : 93.750 FPS (512 SPF) Bit depth : 24 bits Compression mode : Lossless Stream size : 366 MiB (12%) Title : Stereo Language : Japanese Default : No Forced : No Text #1 ID : 4 Format : PGS Muxing mode : zlib Codec ID : S_HDMV/PGS Codec ID/Info : Picture based subtitle format used on BDs/HD-DVDs Duration : 23 min 40 s Bit rate : 3 491 b/s Count of elements : 51 Stream size : 606 KiB (0%) Language : German Default : Yes Forced : Yes Text #2 ID : 5 Format : PGS Muxing mode : zlib Codec ID : S_HDMV/PGS Codec ID/Info : Picture based subtitle format used on BDs/HD-DVDs Duration : 23 min 40 s Bit rate : 31.2 kb/s Count of elements : 546 Stream size : 5.28 MiB (0%) Language : German Default : No Forced : No Menu 00:00:00.000 : :Chapter 01 00:00:55.346 : :Chapter 02 00:07:58.978 : :Chapter 03 00:22:00.944 : :Chapter 04 00:23:30.951 : :Chapter 05 00:23:41.044 : :Chapter 06 ​
    Code:
    General Unique ID : 27949467304167528769191414940513965970 (0x1506DF213F881D9263318111126D9792) Complete name : Accel.World.S01E01.German.DL.DTS.1080p.BluRay.x265-ABJ.mkv Format : Matroska Format version : Version 4 File size : 2.25 GiB Duration : 23 min 42 s Overall bit rate mode : Variable Overall bit rate : 13.6 Mb/s Encoded date : UTC 2021-02-08 02:57:41 Writing application : mkvmerge v52.0.0 ('Secret For The Mad') 64-bit Writing library : libebml v1.4.1 + libmatroska v1.6.2 Version : V1.1 Video ID : 1 Format : HEVC Format/Info : High Efficiency Video Coding Format profile : Main@L6.2@High Codec ID : V_MPEGH/ISO/HEVC Duration : 23 min 42 s Width : 1 920 pixels Height : 1 080 pixels Display aspect ratio : 16:9 Frame rate mode : Constant Frame rate : 23.976 (24000/1001) FPS Color space : YUV Chroma subsampling : 4:2:0 Bit depth : 8 bits Language : Japanese Default : Yes Forced : No Duration_Source : General_Duration Audio #1 ID : 2 Format : DTS XLL Format/Info : Digital Theater Systems Commercial name : DTS-HD Master Audio Codec ID : A_DTS Duration : 23 min 42 s Bit rate mode : Variable Channel(s) : 2 channels Channel layout : L R Sampling rate : 48.0 kHz Frame rate : 93.750 FPS (512 SPF) Bit depth : 24 bits Compression mode : Lossless Language : German Default : Yes Forced : No Duration_Source : General_Duration Audio #2 ID : 3 Format : DTS XLL Format/Info : Digital Theater Systems Commercial name : DTS-HD Master Audio Codec ID : A_DTS Duration : 23 min 42 s Bit rate mode : Variable Channel(s) : 2 channels Channel layout : L R Sampling rate : 48.0 kHz Frame rate : 93.750 FPS (512 SPF) Bit depth : 24 bits Compression mode : Lossless Language : Japanese Default : No Forced : No Duration_Source : General_Duration Text #1 ID : 4 Format : PGS Muxing mode : zlib Codec ID : S_HDMV/PGS Codec ID/Info : Picture based subtitle format used on BDs/HD-DVDs Language : German Default : Yes Forced : Yes Text #2 ID : 5 Format : PGS Muxing mode : zlib Codec ID : S_HDMV/PGS Codec ID/Info : Picture based subtitle format used on BDs/HD-DVDs Language : German Default : No Forced : No Menu 00:00:00.000 : en:Chapter 01 00:00:55.346 : en:Chapter 02 00:07:58.978 : en:Chapter 03 00:22:00.944 : en:Chapter 04 00:23:30.951 : en:Chapter 05 00:23:41.044 : en:Chapter 06 ​
    x264-720p-ac3: [​IMG]
    x264-1080p-dts: [​IMG]
    x265-1080p-dts: [​IMG]
    Geschützter Bereich
    Registriere dich oder logge dich ein, um den Inhalt sehen zu können
     
    Leguron36, Kirdock, Anoand und 21 anderen gefällt das.

Diese Seite empfehlen