Wir verwenden Cookies, um deinen Aufenthalt auf Animes.so möglichst angenehm gestalten zu können. Mehr erfahren

Air Gear [Ger-Jap-Dub][Ger-Sub][544p][DVDRip] - AST4u

Dieses Thema im Forum "Anime Serien (Deutsch)" wurde erstellt von Nanachi, 29. Juni 2015.

  1. Nanachi
    Nanachi

    Uploader Otaku König

    Registriert seit:
    2. Okt. 2017
    Beiträge:
    162
    Zustimmungen:
    1.367

    Air Gear
    エア・ギア



    [​IMG]


    Kurzbeschreibung:


    Spieldauer: 24min
    Genre: Ganbatte
    Nebengenres: Action, Ecchi, Ganbatte, Komödie, Romanze, Sport
    Jahr: 2006
    Sprache: [​IMG] Deutsch, [​IMG] Japanisch
    Untertitel: [​IMG] Deutsch
    Größe pro Folge: 334mb
    Episodenanzahl: 25/25 + 1/1 EP21.5
    Source: DVDRip
    Format: MKV
    Auflösung: 544p (4:3)
    Videocodec: H264 (AVC)
    Audiocodec: AC-3
    Releasegruppe: AST4u
    Hoster: [​IMG] DDownload, [​IMG] Uploaded


    Code:
    Format                                   : Matroska
    Format version                           : Version 4 / Version 2
    File size                                : 334 MiB
    Duration                                 : 23mn 55s
    Overall bit rate                         : 1 952 Kbps
    Encoded date                             : UTC 2014-04-18 17:54:27
    Writing application                      : mkvmerge v6.8.0 ('Theme for Great Cities') 64bit built on Mar  2 2014 21:34:26
    Writing library                          : libebml v1.3.0 + libmatroska v1.4.1
    
    Video
    ID                                       : 2
    Format                                   : AVC
    Format/Info                              : Advanced Video Codec
    Format profile                           : Main@L3
    Format settings, CABAC                   : Yes
    Format settings, ReFrames                : 2 frames
    Codec ID                                 : V_MPEG4/ISO/AVC
    Duration                                 : 23mn 55s
    Bit rate                                 : 1 560 Kbps
    Width                                    : 736 pixels
    Height                                   : 544 pixels
    Display aspect ratio                     : 4:3
    Frame rate mode                          : Constant
    Frame rate                               : 25.000 fps
    Color space                              : YUV
    Chroma subsampling                       : 4:2:0
    Bit depth                                : 8 bits
    Scan type                                : Progressive
    Bits/(Pixel*Frame)                       : 0.156
    Stream size                              : 262 MiB (78%)
    Writing library                          : x264 core 93 r1538bm bd72d46
    Encoding settings                        : cabac=1 / ref=1 / deblock=1:0:0 / analyse=0x1:0x131 / me=hex / subme=4 / psy=1 / psy_rd=0.00:0.00 / mixed_ref=0 / me_range=16 / chroma_me=0 / trellis=1 / 8x8dct=0 / cqm=0 / deadzone=21,11 / fast_pskip=1 / chroma_qp_offset=0 / threads=8 / sliced_threads=1 / slices=8 / nr=0 / decimate=1 / interlaced=0 / constrained_intra=0 / bframes=2 / b_pyramid=0 / b_adapt=1 / b_bias=0 / direct=1 / wpredb=1 / wpredp=2 / keyint=250 / keyint_min=25 / scenecut=40 / intra_refresh=0 / rc=2pass / mbtree=0 / bitrate=1560 / ratetol=1.0 / qcomp=0.60 / qpmin=10 / qpmax=51 / qpstep=4 / cplxblur=20.0 / qblur=0.5 / ip_ratio=1.40 / pb_ratio=1.30 / aq=1:1.00
    Language                                 : English
    Default                                  : Yes
    Forced                                   : No
    
    Audio #1
    ID                                       : 3
    Format                                   : AC-3
    Format/Info                              : Audio Coding 3
    Mode extension                           : CM (complete main)
    Format settings, Endianness              : Big
    Codec ID                                 : A_AC3
    Duration                                 : 23mn 55s
    Bit rate mode                            : Constant
    Bit rate                                 : 192 Kbps
    Channel(s)                               : 2 channels
    Channel positions                        : Front: L R
    Sampling rate                            : 48.0 KHz
    Compression mode                         : Lossy
    Stream size                              : 32.9 MiB (10%)
    Language                                 : German
    Default                                  : Yes
    Forced                                   : No
    
    Audio #2
    ID                                       : 4
    Format                                   : AC-3
    Format/Info                              : Audio Coding 3
    Mode extension                           : CM (complete main)
    Format settings, Endianness              : Big
    Codec ID                                 : A_AC3
    Duration                                 : 23mn 55s
    Bit rate mode                            : Constant
    Bit rate                                 : 192 Kbps
    Channel(s)                               : 2 channels
    Channel positions                        : Front: L R
    Sampling rate                            : 48.0 KHz
    Compression mode                         : Lossy
    Stream size                              : 32.9 MiB (10%)
    Language                                 : Japanese
    Default                                  : No
    Forced                                   : No
    
    Text
    ID                                       : 1
    Format                                   : VobSub
    Muxing mode                              : zlib
    Codec ID                                 : S_VOBSUB
    Codec ID/Info                            : Picture based subtitle format used on DVDs
    Language                                 : German
    Default                                  : No
    Forced                                   : No
    
    Menu
    00:00:00.000                             : en:Ch. 01 @ 00:00:00
    00:01:30.800                             : en:Ch. 02 @ 00:01:30
    00:08:52.600                             : en:Ch. 03 @ 00:08:52
    00:21:55.640                             : en:Ch. 04 @ 00:21:55
    
    


    [​IMG]
    Status: [​IMG]
    Geschützter Bereich
    Registriere dich oder logge dich ein, um den Inhalt sehen zu können
     
    Zuletzt bearbeitet: 1. Aug. 2020
    Er4s3r, Vagabund, Some1Stupid und 98 anderen gefällt das.
  2. Nanachi
    Nanachi

    Uploader Otaku König

    Registriert seit:
    2. Okt. 2017
    Beiträge:
    162
    Zustimmungen:
    1.367
    Wieder online. Share-Online mit DDownload ausgetauscht.
     
    DevilWataru gefällt das.

Diese Seite empfehlen