• Wie Du sicherlich schon gesehen hast, hat sich Animes.so gewaltig verändert. Klicke hier um mehr Informationen darüber zu erhalten.

supersonik

Otaku König
Beiträge
223
Punkte Reaktionen
26.973
Punkte
98

Angel Beats!
エンジェルビーツ!
CupW92n.png


Beschreibung:
Als Otonashi auf dem Gelände einer ihm unbekannten Schule erwacht, weiß er zunächst nicht, was vor sich geht. Weder das Mädchen mit der Feuerwaffe in der Hand, das ihn in Empfang nimmt, noch die Tatsache, dass er sich an kein Detail seines bisherigen Lebens erinnern kann, wecken in ihm Begeisterung. Das Mädchen, Yuri, erklärt Otonashi, dass er gestorben sei, und dass es sich bei dem Schulgelände, auf dem sie sich befinden, um eine Welt zwischen Leben und Tod handle. Sie erzählt ihm von der Shinda Sekai Sensen, einer Art Untergrundorganisation, der sie und einige andere Bewohner dieser Welt angehören. Die Mitglieder der SSS sind allesamt »tote« Jugendliche, die sich weigern, sich dem System der Schule anzupassen. Denn sobald man sich den Schulregeln beugt, verschwindet man auf mysteriöse Weise aus der Zwischenwelt.

Doch Yuri und ihre Freunde kämpfen nicht nur gegen das System selbst, sie haben einen handfesten Gegner: Die Vorsitzende der Schülervertretung, genannt Tenshi. Mit ihren übermenschlichen Kräften versucht sie, die Ordnung auf dem Schulgelände wiederherzustellen, doch die Mitglieder der SSS wissen sich zu wehren. Otonashi, welcher der SSS beitritt, kann dennoch sein Interesse am »Engel« nicht leugnen, denn ihm kommt sie vor wie ein ganz gewöhnliches Mädchen …
by anisearch.de

Episoden: 13/13+ Bonus
Größe: ~640 MB | ~2000 MB | ~1540 MB
Releaser: Anime BluRay Junkies
Art: Lizenzrelease
Sprache: Deutsch | Japanisch
Untertitel: Deutsch
Jahr: 2010
Genres: Sentimentales Drama, Action, Komödie, Mystery, Romanze, Alternative Welt, Band, Gedächnisverlust, Gegenwart, Isekai, Moe, Schule, Tragödie
Auflösung: 1280x720 | 1920x1080
Format: MKV
Quelle: BluRay
Videocodec: x264 | x265
Farbtiefe: 8bit
Audiocodec: AC3 | DTS-HD
Publisher: P.A. Works Co. Ltd. | LEONINE Anime
Hoster: DDownload | Uploaded


Mediainfo:
Code:
[LEFT]
General
Unique ID                                : 232178466298315363134347439198440279168 (0xAEABF2318CF6FE7801695AE02A4C4C80)
Complete name                            : Angel.Beats.S01E01.German.DL.AC3.720p.BluRay.x264-ABJ.mkv
Format                                   : Matroska
Format version                           : Version 4
File size                                : 644 MiB
Duration                                 : 26 min 3 s
Overall bit rate                         : 3 456 kb/s
Encoded date                             : UTC 2020-11-25 14:04:58
Writing application                      : mkvmerge v49.0.0 ('Sick Of Losing Soulmates') 64-bit
Writing library                          : libebml v1.4.0 + libmatroska v1.6.1 / Lavf58.42.101
VERSION                                  : 1.1

Video
ID                                       : 1
Format                                   : AVC
Format/Info                              : Advanced Video Codec
Format profile                           : [email protected]
Format settings                          : CABAC / 12 Ref Frames
Format settings, CABAC                   : Yes
Format settings, Reference frames        : 12 frames
Codec ID                                 : V_MPEG4/ISO/AVC
Duration                                 : 26 min 3 s
Bit rate                                 : 2 158 kb/s
Width                                    : 1 280 pixels
Height                                   : 720 pixels
Display aspect ratio                     : 16:9
Frame rate mode                          : Constant
Frame rate                               : 23.976 (24000/1001) FPS
Color space                              : YUV
Chroma subsampling                       : 4:2:0
Bit depth                                : 8 bits
Scan type                                : Progressive
Bits/(Pixel*Frame)                       : 0.098
Stream size                              : 402 MiB (62%)
Default                                  : Yes
Forced                                   : No

Audio #1
ID                                       : 2
Format                                   : AC-3
Format/Info                              : Audio Coding 3
Commercial name                          : Dolby Digital
Codec ID                                 : A_AC3
Duration                                 : 26 min 3 s
Bit rate mode                            : Constant
Bit rate                                 : 640 kb/s
Channel(s)                               : 2 channels
Channel layout                           : L R
Sampling rate                            : 48.0 kHz
Frame rate                               : 31.250 FPS (1536 SPF)
Compression mode                         : Lossy
Stream size                              : 119 MiB (19%)
Title                                    : Stereo
Language                                 : German
Service kind                             : Complete Main
Default                                  : Yes
Forced                                   : No

Audio #2
ID                                       : 3
Format                                   : AC-3
Format/Info                              : Audio Coding 3
Commercial name                          : Dolby Digital
Codec ID                                 : A_AC3
Duration                                 : 26 min 3 s
Bit rate mode                            : Constant
Bit rate                                 : 640 kb/s
Channel(s)                               : 2 channels
Channel layout                           : L R
Sampling rate                            : 48.0 kHz
Frame rate                               : 31.250 FPS (1536 SPF)
Compression mode                         : Lossy
Stream size                              : 119 MiB (19%)
Title                                    : Stereo
Language                                 : Japanese
Service kind                             : Complete Main
Default                                  : No
Forced                                   : No

Text #1
ID                                       : 4
Format                                   : PGS
Muxing mode                              : zlib
Codec ID                                 : S_HDMV/PGS
Codec ID/Info                            : Picture based subtitle format used on BDs/HD-DVDs
Duration                                 : 23 min 38 s
Bit rate                                 : 894 b/s
Count of elements                        : 22
Stream size                              : 155 KiB (0%)
Language                                 : German
Default                                  : Yes
Forced                                   : Yes

Text #2
ID                                       : 5
Format                                   : PGS
Muxing mode                              : zlib
Codec ID                                 : S_HDMV/PGS
Codec ID/Info                            : Picture based subtitle format used on BDs/HD-DVDs
Duration                                 : 25 min 25 s
Bit rate                                 : 49.1 kb/s
Count of elements                        : 828
Stream size                              : 8.93 MiB (1%)
Language                                 : German
Default                                  : No
Forced                                   : No

Menu
00:00:00.000                             : :Chapter 01
00:01:31.091                             : :Chapter 02
00:14:17.982                             : :Chapter 03
00:25:03.668                             : :Chapter 04
[/LEFT]
Code:
[LEFT]
General
Unique ID                                : 28883497829868748819163555519597542172 (0x15BAC263E780E08E8907B7BD53167B1C)
Complete name                            : Angel.Beats.S01E01.German.DL.DTS.1080p.BluRay.x264-ABJ.mkv
Format                                   : Matroska
Format version                           : Version 4
File size                                : 2.00 GiB
Duration                                 : 26 min 3 s
Overall bit rate mode                    : Variable
Overall bit rate                         : 11.0 Mb/s
Encoded date                             : UTC 2020-11-25 14:09:56
Writing application                      : mkvmerge v49.0.0 ('Sick Of Losing Soulmates') 64-bit
Writing library                          : libebml v1.4.0 + libmatroska v1.6.1 / Lavf58.42.101
VERSION                                  : 1.1

Video
ID                                       : 1
Format                                   : AVC
Format/Info                              : Advanced Video Codec
Format profile                           : [email protected]
Format settings                          : CABAC / 12 Ref Frames
Format settings, CABAC                   : Yes
Format settings, Reference frames        : 12 frames
Codec ID                                 : V_MPEG4/ISO/AVC
Duration                                 : 26 min 3 s
Bit rate                                 : 8 060 kb/s
Width                                    : 1 920 pixels
Height                                   : 1 080 pixels
Display aspect ratio                     : 16:9
Frame rate mode                          : Constant
Frame rate                               : 23.976 (24000/1001) FPS
Color space                              : YUV
Chroma subsampling                       : 4:2:0
Bit depth                                : 8 bits
Scan type                                : Progressive
Bits/(Pixel*Frame)                       : 0.162
Stream size                              : 1.47 GiB (73%)
Default                                  : Yes
Forced                                   : No

Audio #1
ID                                       : 2
Format                                   : DTS XLL
Format/Info                              : Digital Theater Systems
Commercial name                          : DTS-HD Master Audio
Codec ID                                 : A_DTS
Duration                                 : 26 min 3 s
Bit rate mode                            : Variable
Bit rate                                 : 1 127 kb/s
Channel(s)                               : 2 channels
Channel layout                           : L R
Sampling rate                            : 48.0 kHz
Frame rate                               : 93.750 FPS (512 SPF)
Bit depth                                : 24 bits
Compression mode                         : Lossless
Stream size                              : 210 MiB (10%)
Title                                    : Stereo
Language                                 : German
Default                                  : Yes
Forced                                   : No

Audio #2
ID                                       : 3
Format                                   : DTS XLL
Format/Info                              : Digital Theater Systems
Commercial name                          : DTS-HD Master Audio
Codec ID                                 : A_DTS
Duration                                 : 26 min 3 s
Bit rate mode                            : Variable
Bit rate                                 : 1 796 kb/s
Channel(s)                               : 2 channels
Channel layout                           : L R
Sampling rate                            : 48.0 kHz
Frame rate                               : 93.750 FPS (512 SPF)
Bit depth                                : 24 bits
Compression mode                         : Lossless
Stream size                              : 335 MiB (16%)
Title                                    : Stereo
Language                                 : Japanese
Default                                  : No
Forced                                   : No

Text #1
ID                                       : 4
Format                                   : PGS
Muxing mode                              : zlib
Codec ID                                 : S_HDMV/PGS
Codec ID/Info                            : Picture based subtitle format used on BDs/HD-DVDs
Duration                                 : 23 min 38 s
Bit rate                                 : 894 b/s
Count of elements                        : 22
Stream size                              : 155 KiB (0%)
Language                                 : German
Default                                  : Yes
Forced                                   : Yes

Text #2
ID                                       : 5
Format                                   : PGS
Muxing mode                              : zlib
Codec ID                                 : S_HDMV/PGS
Codec ID/Info                            : Picture based subtitle format used on BDs/HD-DVDs
Duration                                 : 25 min 25 s
Bit rate                                 : 49.1 kb/s
Count of elements                        : 828
Stream size                              : 8.93 MiB (0%)
Language                                 : German
Default                                  : No
Forced                                   : No

Menu
00:00:00.000                             : :Chapter 01
00:01:31.091                             : :Chapter 02
00:14:17.982                             : :Chapter 03
00:25:03.668                             : :Chapter 04
[/LEFT]
Code:
[LEFT]
General
Unique ID                                : 111688520745791095697634307890098421943 (0x54066D3940CD04952C28B9584F2F40B7)
Complete name                            : Angel.Beats.S01E01.German.DL.DTS.1080p.BluRay.x265-ABJ.mkv
Format                                   : Matroska
Format version                           : Version 4
File size                                : 1.54 GiB
Duration                                 : 26 min 3 s
Overall bit rate mode                    : Variable
Overall bit rate                         : 8 442 kb/s
Encoded date                             : UTC 2020-12-14 04:06:44
Writing application                      : mkvmerge v51.0.0 ('I Wish') 64-bit
Writing library                          : libebml v1.4.0 + libmatroska v1.6.2

Video
ID                                       : 1
Format                                   : HEVC
Format/Info                              : High Efficiency Video Coding
Format profile                           : [email protected]@High
Codec ID                                 : V_MPEGH/ISO/HEVC
Duration                                 : 26 min 3 s
Width                                    : 1 920 pixels
Height                                   : 1 080 pixels
Display aspect ratio                     : 16:9
Frame rate mode                          : Constant
Frame rate                               : 23.976 (24000/1001) FPS
Color space                              : YUV
Chroma subsampling                       : 4:2:0
Bit depth                                : 8 bits
Language                                 : Japanese
Default                                  : Yes
Forced                                   : No
Duration_Source                          : General_Duration

Audio #1
ID                                       : 2
Format                                   : DTS XLL
Format/Info                              : Digital Theater Systems
Commercial name                          : DTS-HD Master Audio
Codec ID                                 : A_DTS
Duration                                 : 26 min 3 s
Bit rate mode                            : Variable
Channel(s)                               : 2 channels
Channel layout                           : L R
Sampling rate                            : 48.0 kHz
Frame rate                               : 93.750 FPS (512 SPF)
Bit depth                                : 24 bits
Compression mode                         : Lossless
Language                                 : German
Default                                  : Yes
Forced                                   : No
Duration_Source                          : General_Duration

Audio #2
ID                                       : 3
Format                                   : DTS XLL
Format/Info                              : Digital Theater Systems
Commercial name                          : DTS-HD Master Audio
Codec ID                                 : A_DTS
Duration                                 : 26 min 3 s
Bit rate mode                            : Variable
Channel(s)                               : 2 channels
Channel layout                           : L R
Sampling rate                            : 48.0 kHz
Frame rate                               : 93.750 FPS (512 SPF)
Bit depth                                : 24 bits
Compression mode                         : Lossless
Language                                 : Japanese
Default                                  : No
Forced                                   : No
Duration_Source                          : General_Duration

Text #1
ID                                       : 4
Format                                   : PGS
Muxing mode                              : zlib
Codec ID                                 : S_HDMV/PGS
Codec ID/Info                            : Picture based subtitle format used on BDs/HD-DVDs
Language                                 : German
Default                                  : Yes
Forced                                   : Yes

Text #2
ID                                       : 5
Format                                   : PGS
Muxing mode                              : zlib
Codec ID                                 : S_HDMV/PGS
Codec ID/Info                            : Picture based subtitle format used on BDs/HD-DVDs
Language                                 : German
Default                                  : No
Forced                                   : No

Menu
00:00:00.000                             : en:Chapter 01
00:01:31.091                             : en:Chapter 02
00:14:17.982                             : en:Chapter 03
00:25:03.668                             : en:Chapter 04
[/LEFT]
x264-720p-ac3:
15E7DA4198.png

x264-1080p-dts:
E53EC7DFDD.png

x265-1080p-dts:
0C190F7EA5.png

To view the content, you need to Sign In or Register.

 
Oben