Welcome to our Community
Wanting to join the rest of our members? Feel free to sign up today.
Sign up

Attack on Titan Staffel 3 | Shingeki no Kyojin Season 3 [Ger-Jap-Dub][Ger-Sub][720p|1080p][E-AC-3|DTS-HD][x264|x265][BluRay] - Hugo

Azugo

H͓̽u͓̽g͓̽o͓̽ ͓̽&͓̽ ͓̽A͓̽z͓̽u͓̽r͓̽a͓̽
Otaku Gott
Uploader
25 März 2020
3.598
36.318
118

Attack on Titan Staffel 3 - Shingeki no Kyojin Season 3



49N77Dj.png



oie_bchbujbgr3vm-png.30595

AniSearch.com schrieb:
Die nunmehr dritte Staffel der „Attack on Titan“-Anime-Adaption setzt nahtlos an die Geschehnisse ihrer Vorgängerstaffel an: Eren und seine Kameraden der 104. sind nun Teil des neu gegründeten Levi-Squads, dessen Aufgabe es ist, Eren und Historia zu beschützen. Doch Eren mit seiner neuen Titanen-Verhärtungstechnik und Historia mit all ihrem Wissen und ihrer Abstammung sind nicht nur für den Aufklärungstrupp rund um Erwin und Levi von großer Bedeutung … Auch andere Mächte sind daran interessiert, die beiden in ihre Finger zu bekommen, wenn auch zu gänzlich anderen Zwecken als Erwin! Dies bestätigt sich auch durch den brutalen Foltertod des Priesters, den Hanji an einen vermeintlich sicheren Ort brachte. Der Verdacht liegt nahe, dass die Militärpolizei ihre Finger im Spiel hat und ihr neuer (menschlicher) Gegner lässt auch nicht lang auf sich warten. Ein heißes Gefecht entbrennt zwischen Levi und einem alten Bekannten, an den er sich aus seiner Jugend nur zu gut erinnert … https://www.anisearch.de/anime/12550


oie_bchbujbgr3vm1-png.30596


Spieldauer: ~24min
Genre: Actiondrama
Nebengenres: Abenteuer, Action, Drama, Fantasy, Horror, Mystery, Psychodrama, Übermäßige Gewaltdarstellung
Jahr: 2018
Sprache:
Deutsch.png
Deutsch,
Japanisch.png
Japanisch
Untertitel:
Deutsch.png
Deutsch
Größe pro Folge: ~1000mb, ~2200mb, ~2800mb, ~650mb, ~1300mb
Episodenanzahl: 22/22
Format: MKV
Auflösung: 720p (16:9), 1080p (16:9)
Videocodec: H264 (AVC), H265 (HEVC)
Audiocodec: E-AC-3 ,DTS-HD
Releasegruppe: Hugo
Hoster:
rapidgator-gif.30742
Rapidgator,
ddownload-gif.30720
ddownload


oie_bchbujbgr3vm2-png.30597

Rich (BBCode):
Format                                   : Matroska
Format version                           : Version 4
File size                                : 1 017 MiB
Duration                                 : 23 min 55 s
Overall bit rate                         : 5 944 kb/s
Encoded date                             : UTC 2021-04-14 11:04:13
Writing application                      : mkvmerge v56.1.0 ('My Friend') 64-bit
Writing library                          : libebml v1.4.2 + libmatroska v1.6.4
Version                                  : 2.2

Video
ID                                       : 1
Format                                   : AVC
Format/Info                              : Advanced Video Codec
Format profile                           : [email protected]
Format settings                          : CABAC / 4 Ref Frames
Format settings, CABAC                   : Yes
Format settings, Reference frames        : 4 frames
Codec ID                                 : V_MPEG4/ISO/AVC
Duration                                 : 23 min 55 s
Bit rate                                 : 4 607 kb/s
Width                                    : 1 280 pixels
Height                                   : 720 pixels
Display aspect ratio                     : 16:9
Frame rate mode                          : Constant
Frame rate                               : 23.976 (24000/1001) FPS
Color space                              : YUV
Chroma subsampling                       : 4:2:0
Bit depth                                : 8 bits
Scan type                                : Progressive
Bits/(Pixel*Frame)                       : 0.208
Stream size                              : 788 MiB (77%)
Writing library                          : x264 core 161 r3048 b86ae3c
Encoding settings                        : By-Hugo
Language                                 : English
Default                                  : Yes
Forced                                   : No
Color range                              : Limited
Color primaries                          : BT.709
Transfer characteristics                 : BT.709
Matrix coefficients                      : BT.709

Audio #1
ID                                       : 4
Format                                   : E-AC-3
Format/Info                              : Enhanced AC-3
Commercial name                          : Dolby Digital Plus
Codec ID                                 : A_EAC3
Duration                                 : 23 min 55 s
Bit rate mode                            : Constant
Bit rate                                 : 640 kb/s
Channel(s)                               : 2 channels
Channel layout                           : L R
Sampling rate                            : 48.0 kHz
Frame rate                               : 31.250 FPS (1536 SPF)
Bit depth                                : 32 bits
Compression mode                         : Lossy
Stream size                              : 109 MiB (11%)
Title                                    : Stereo
Language                                 : German
Service kind                             : Complete Main
Default                                  : Yes
Forced                                   : No

Audio #2
ID                                       : 5
Format                                   : E-AC-3
Format/Info                              : Enhanced AC-3
Commercial name                          : Dolby Digital Plus
Codec ID                                 : A_EAC3
Duration                                 : 23 min 55 s
Bit rate mode                            : Constant
Bit rate                                 : 640 kb/s
Channel(s)                               : 2 channels
Channel layout                           : L R
Sampling rate                            : 48.0 kHz
Frame rate                               : 31.250 FPS (1536 SPF)
Bit depth                                : 32 bits
Compression mode                         : Lossy
Stream size                              : 109 MiB (11%)
Title                                    : Stereo
Language                                 : Japanese
Service kind                             : Complete Main
Default                                  : No
Forced                                   : No

Text #1
ID                                       : 2
Format                                   : PGS
Muxing mode                              : zlib
Codec ID                                 : S_HDMV/PGS
Codec ID/Info                            : Picture based subtitle format used on BDs/HD-DVDs
Duration                                 : 21 min 49 s
Bit rate                                 : 488 b/s
Count of elements                        : 8
Stream size                              : 78.0 KiB (0%)
Title                                    : German Forced
Language                                 : German
Default                                  : Yes
Forced                                   : No

Text #2
ID                                       : 3
Format                                   : PGS
Muxing mode                              : zlib
Codec ID                                 : S_HDMV/PGS
Codec ID/Info                            : Picture based subtitle format used on BDs/HD-DVDs
Duration                                 : 23 min 41 s
Bit rate                                 : 102 kb/s
Count of elements                        : 690
Stream size                              : 17.3 MiB (2%)
Title                                    : German Full
Language                                 : German
Default                                  : No
Forced                                   : No

Menu
00:00:00.000                             : :Chapter 01
00:02:05.041                             : :Chapter 02
00:16:29.029                             : :Chapter 03
00:22:45.155                             : :Chapter 04
00:23:39.793                             : :Chapter 05

Code:
=rich[color=Turquoise]Format                                   : Matroska
Format version                           : Version 4
File size                                : 2.23 GiB
Duration                                 : 23 min 55 s
Overall bit rate                         : 13.3 Mb/s
Encoded date                             : UTC 2021-04-14 10:17:26
Writing application                      : mkvmerge v56.1.0 ('My Friend') 64-bit
Writing library                          : libebml v1.4.2 + libmatroska v1.6.4
Version                                  : 2.2

Video
ID                                       : 1
Format                                   : AVC
Format/Info                              : Advanced Video Codec
Format profile                           : [email protected]
Format settings                          : CABAC / 4 Ref Frames
Format settings, CABAC                   : Yes
Format settings, Reference frames        : 4 frames
Codec ID                                 : V_MPEG4/ISO/AVC
Duration                                 : 23 min 55 s
Bit rate                                 : 12.0 Mb/s
Width                                    : 1 920 pixels
Height                                   : 1 080 pixels
Display aspect ratio                     : 16:9
Frame rate mode                          : Constant
Frame rate                               : 23.976 (24000/1001) FPS
Color space                              : YUV
Chroma subsampling                       : 4:2:0
Bit depth                                : 8 bits
Scan type                                : Progressive
Bits/(Pixel*Frame)                       : 0.241
Stream size                              : 2.00 GiB (90%)
Writing library                          : x264 core 161 r3048 b86ae3c
Encoding settings                        : By-Hugo
Language                                 : English
Default                                  : Yes
Forced                                   : No

Audio #1
ID                                       : 4
Format                                   : E-AC-3
Format/Info                              : Enhanced AC-3
Commercial name                          : Dolby Digital Plus
Codec ID                                 : A_EAC3
Duration                                 : 23 min 55 s
Bit rate mode                            : Constant
Bit rate                                 : 640 kb/s
Channel(s)                               : 2 channels
Channel layout                           : L R
Sampling rate                            : 48.0 kHz
Frame rate                               : 31.250 FPS (1536 SPF)
Bit depth                                : 24 bits
Compression mode                         : Lossy
Stream size                              : 109 MiB (5%)
Language                                 : German
Service kind                             : Complete Main
Default                                  : Yes
Forced                                   : No

Audio #2
ID                                       : 5
Format                                   : E-AC-3
Format/Info                              : Enhanced AC-3
Commercial name                          : Dolby Digital Plus
Codec ID                                 : A_EAC3
Duration                                 : 23 min 55 s
Bit rate mode                            : Constant
Bit rate                                 : 640 kb/s
Channel(s)                               : 2 channels
Channel layout                           : L R
Sampling rate                            : 48.0 kHz
Frame rate                               : 31.250 FPS (1536 SPF)
Bit depth                                : 24 bits
Compression mode                         : Lossy
Stream size                              : 109 MiB (5%)
Language                                 : Japanese
Service kind                             : Complete Main
Default                                  : No
Forced                                   : No

Text #1
ID                                       : 2
Format                                   : PGS
Muxing mode                              : zlib
Codec ID                                 : S_HDMV/PGS
Codec ID/Info                            : Picture based subtitle format used on BDs/HD-DVDs
Duration                                 : 21 min 49 s
Bit rate                                 : 488 b/s
Count of elements                        : 8
Stream size                              : 78.0 KiB (0%)
Title                                    : German Forced
Language                                 : German
Default                                  : Yes
Forced                                   : Yes

Text #2
ID                                       : 3
Format                                   : PGS
Muxing mode                              : zlib
Codec ID                                 : S_HDMV/PGS
Codec ID/Info                            : Picture based subtitle format used on BDs/HD-DVDs
Duration                                 : 23 min 41 s
Bit rate                                 : 102 kb/s
Count of elements                        : 690
Stream size                              : 17.3 MiB (1%)
Title                                    : German Full
Language                                 : German
Default                                  : No
Forced                                   : No

Menu
00:00:00.000                             : :Chapter 01
00:02:05.041                             : :Chapter 02
00:16:29.029                             : :Chapter 03
00:22:45.155                             : :Chapter 04
00:23:39.793                             : :Chapter 05

[/color]
Rich (BBCode):
Format                                   : Matroska
Format version                           : Version 4
File size                                : 2.71 GiB
Duration                                 : 23 min 55 s
Overall bit rate mode                    : Variable
Overall bit rate                         : 16.2 Mb/s
Encoded date                             : UTC 2021-04-09 11:55:00
Writing application                      : mkvmerge v56.0.0 ('Strasbourg / St. Denis') 64-bit
Writing library                          : libebml v1.4.2 + libmatroska v1.6.4
Version                                  : 2.2

Video
ID                                       : 1
Format                                   : AVC
Format/Info                              : Advanced Video Codec
Format profile                           : [email protected]
Format settings                          : CABAC / 4 Ref Frames
Format settings, CABAC                   : Yes
Format settings, Reference frames        : 4 frames
Codec ID                                 : V_MPEG4/ISO/AVC
Duration                                 : 23 min 55 s
Bit rate                                 : 12.0 Mb/s
Width                                    : 1 920 pixels
Height                                   : 1 080 pixels
Display aspect ratio                     : 16:9
Frame rate mode                          : Constant
Frame rate                               : 23.976 (24000/1001) FPS
Color space                              : YUV
Chroma subsampling                       : 4:2:0
Bit depth                                : 8 bits
Scan type                                : Progressive
Bits/(Pixel*Frame)                       : 0.241
Stream size                              : 2.00 GiB (74%)
Writing library                          : x264 core 161 r3048 b86ae3c
Encoding settings                        : By-Hugo
Language                                 : English
Default                                  : Yes
Forced                                   : No
Color primaries                          : BT.709
Transfer characteristics                 : BT.709
Matrix coefficients                      : BT.709

Audio #1
ID                                       : 4
Format                                   : DTS XLL
Format/Info                              : Digital Theater Systems
Commercial name                          : DTS-HD Master Audio
Codec ID                                 : A_DTS
Duration                                 : 23 min 55 s
Bit rate mode                            : Variable
Channel(s)                               : 2 channels
Channel layout                           : L R
Sampling rate                            : 48.0 kHz
Frame rate                               : 93.750 FPS (512 SPF)
Bit depth                                : 24 bits
Compression mode                         : Lossless
Stream size                              : 359 MiB (13%)
Language                                 : German
Default                                  : Yes
Forced                                   : No

Audio #2
ID                                       : 5
Format                                   : DTS XLL
Format/Info                              : Digital Theater Systems
Commercial name                          : DTS-HD Master Audio
Codec ID                                 : A_DTS
Duration                                 : 23 min 55 s
Bit rate mode                            : Variable
Channel(s)                               : 2 channels
Channel layout                           : L R
Sampling rate                            : 48.0 kHz
Frame rate                               : 93.750 FPS (512 SPF)
Bit depth                                : 24 bits
Compression mode                         : Lossless
Stream size                              : 360 MiB (13%)
Language                                 : Japanese
Default                                  : No
Forced                                   : No

Text #1
ID                                       : 2
Format                                   : PGS
Muxing mode                              : zlib
Codec ID                                 : S_HDMV/PGS
Codec ID/Info                            : Picture based subtitle format used on BDs/HD-DVDs
Duration                                 : 21 min 49 s
Bit rate                                 : 488 b/s
Count of elements                        : 8
Stream size                              : 78.0 KiB (0%)
Title                                    : German Forced
Language                                 : German
Default                                  : Yes
Forced                                   : Yes

Text #2
ID                                       : 3
Format                                   : PGS
Muxing mode                              : zlib
Codec ID                                 : S_HDMV/PGS
Codec ID/Info                            : Picture based subtitle format used on BDs/HD-DVDs
Duration                                 : 23 min 41 s
Bit rate                                 : 102 kb/s
Count of elements                        : 690
Stream size                              : 17.3 MiB (1%)
Title                                    : German Full
Language                                 : German
Default                                  : No
Forced                                   : No

Menu
00:00:00.000                             : :Chapter 01
00:02:05.041                             : :Chapter 02
00:16:29.029                             : :Chapter 03
00:22:45.155                             : :Chapter 04
00:23:39.793                             : :Chapter 05

Rich (BBCode):
Format                                   : Matroska
Format version                           : Version 4
File size                                : 615 MiB
Duration                                 : 23 min 55 s
Overall bit rate                         : 3 593 kb/s
Encoded date                             : UTC 2020-12-15 22:11:53
Writing application                      : mkvmerge v51.0.0 ('I Wish') 64-bit
Writing library                          : libebml v1.4.0 + libmatroska v1.6.2

Video
ID                                       : 1
ID in the original source medium         : 4113 (0x1011)
Format                                   : HEVC
Format/Info                              : High Efficiency Video Coding
Format profile                           : Main@L5@High
Codec ID                                 : V_MPEGH/ISO/HEVC
Duration                                 : 23 min 55 s
Bit rate                                 : 2 255 kb/s
Width                                    : 1 280 pixels
Height                                   : 720 pixels
Display aspect ratio                     : 16:9
Frame rate mode                          : Constant
Frame rate                               : 23.976 (24000/1001) FPS
Color space                              : YUV
Chroma subsampling                       : 4:2:0
Bit depth                                : 8 bits
Bits/(Pixel*Frame)                       : 0.102
Stream size                              : 386 MiB (63%)
Language                                 : English
Default                                  : Yes
Forced                                   : No
Color range                              : Limited
Original source medium                   : Blu-ray

Audio #1
ID                                       : 4
ID in the original source medium         : 4352 (0x1100)
Format                                   : E-AC-3
Format/Info                              : Enhanced AC-3
Commercial name                          : Dolby Digital Plus
Codec ID                                 : A_EAC3
Duration                                 : 23 min 55 s
Bit rate mode                            : Constant
Bit rate                                 : 640 kb/s
Channel(s)                               : 2 channels
Channel layout                           : L R
Sampling rate                            : 48.0 kHz
Frame rate                               : 31.250 FPS (1536 SPF)
Compression mode                         : Lossy
Stream size                              : 109 MiB (18%)
Title                                    : Stereo
Language                                 : German
Service kind                             : Complete Main
Default                                  : Yes
Forced                                   : No
Original source medium                   : Blu-ray

Audio #2
ID                                       : 5
ID in the original source medium         : 4353 (0x1101)
Format                                   : E-AC-3
Format/Info                              : Enhanced AC-3
Commercial name                          : Dolby Digital Plus
Codec ID                                 : A_EAC3
Duration                                 : 23 min 55 s
Bit rate mode                            : Constant
Bit rate                                 : 640 kb/s
Channel(s)                               : 2 channels
Channel layout                           : L R
Sampling rate                            : 48.0 kHz
Frame rate                               : 31.250 FPS (1536 SPF)
Compression mode                         : Lossy
Stream size                              : 109 MiB (18%)
Title                                    : Stereo
Language                                 : Japanese
Service kind                             : Complete Main
Default                                  : No
Forced                                   : No
Original source medium                   : Blu-ray

Text #1
ID                                       : 2
ID in the original source medium         : 4608 (0x1200)
Format                                   : PGS
Muxing mode                              : zlib
Codec ID                                 : S_HDMV/PGS
Codec ID/Info                            : Picture based subtitle format used on BDs/HD-DVDs
Duration                                 : 21 min 49 s
Bit rate                                 : 488 b/s
Count of elements                        : 8
Stream size                              : 78.0 KiB (0%)
Title                                    : German Forced
Language                                 : German
Default                                  : Yes
Forced                                   : No
Original source medium                   : Blu-ray

Text #2
ID                                       : 3
ID in the original source medium         : 4609 (0x1201)
Format                                   : PGS
Muxing mode                              : zlib
Codec ID                                 : S_HDMV/PGS
Codec ID/Info                            : Picture based subtitle format used on BDs/HD-DVDs
Duration                                 : 23 min 41 s
Bit rate                                 : 102 kb/s
Count of elements                        : 690
Stream size                              : 17.3 MiB (3%)
Title                                    : German Full
Language                                 : German
Default                                  : No
Forced                                   : No
Original source medium                   : Blu-ray

Menu
00:00:00.000                             : :Chapter 01
00:02:05.041                             : :Chapter 02
00:16:29.029                             : :Chapter 03
00:22:45.155                             : :Chapter 04
00:23:39.793                             : :Chapter 05
Rich (BBCode):
Format                                   : Matroska
Format version                           : Version 4
File size                                : 1.28 GiB
Duration                                 : 23 min 55 s
Overall bit rate                         : 7 680 kb/s
Encoded date                             : UTC 2020-12-14 09:40:24
Writing application                      : mkvmerge v51.0.0 ('I Wish') 64-bit
Writing library                          : libebml v1.4.0 + libmatroska v1.6.2

Video
ID                                       : 1
ID in the original source medium         : 4113 (0x1011)
Format                                   : HEVC
Format/Info                              : High Efficiency Video Coding
Format profile                           : Main@L5@High
Codec ID                                 : V_MPEGH/ISO/HEVC
Duration                                 : 23 min 55 s
Bit rate                                 : 6 342 kb/s
Width                                    : 1 920 pixels
Height                                   : 1 080 pixels
Display aspect ratio                     : 16:9
Frame rate mode                          : Constant
Frame rate                               : 23.976 (24000/1001) FPS
Color space                              : YUV
Chroma subsampling                       : 4:2:0
Bit depth                                : 8 bits
Bits/(Pixel*Frame)                       : 0.128
Stream size                              : 1.06 GiB (83%)
Writing library                          : x265 3.4+27-g241342f25:[Windows][GCC 9.3.0][64 bit] 8bit+10bit+12bit
Language                                 : English
Default                                  : Yes
Forced                                   : No
Color range                              : Limited
Original source medium                   : Blu-ray

Audio #1
ID                                       : 4
ID in the original source medium         : 4352 (0x1100)
Format                                   : E-AC-3
Format/Info                              : Enhanced AC-3
Commercial name                          : Dolby Digital Plus
Codec ID                                 : A_EAC3
Duration                                 : 23 min 55 s
Bit rate mode                            : Constant
Bit rate                                 : 640 kb/s
Channel(s)                               : 2 channels
Channel layout                           : L R
Sampling rate                            : 48.0 kHz
Frame rate                               : 31.250 FPS (1536 SPF)
Compression mode                         : Lossy
Stream size                              : 109 MiB (8%)
Title                                    : Stereo
Language                                 : German
Service kind                             : Complete Main
Default                                  : Yes
Forced                                   : No
Original source medium                   : Blu-ray

Audio #2
ID                                       : 5
ID in the original source medium         : 4353 (0x1101)
Format                                   : E-AC-3
Format/Info                              : Enhanced AC-3
Commercial name                          : Dolby Digital Plus
Codec ID                                 : A_EAC3
Duration                                 : 23 min 55 s
Bit rate mode                            : Constant
Bit rate                                 : 640 kb/s
Channel(s)                               : 2 channels
Channel layout                           : L R
Sampling rate                            : 48.0 kHz
Frame rate                               : 31.250 FPS (1536 SPF)
Compression mode                         : Lossy
Stream size                              : 109 MiB (8%)
Title                                    : Stereo
Language                                 : Japanese
Service kind                             : Complete Main
Default                                  : No
Forced                                   : No
Original source medium                   : Blu-ray

Text #1
ID                                       : 2
ID in the original source medium         : 4608 (0x1200)
Format                                   : PGS
Muxing mode                              : zlib
Codec ID                                 : S_HDMV/PGS
Codec ID/Info                            : Picture based subtitle format used on BDs/HD-DVDs
Duration                                 : 21 min 49 s
Bit rate                                 : 488 b/s
Count of elements                        : 8
Stream size                              : 78.0 KiB (0%)
Title                                    : German Forced
Language                                 : German
Default                                  : Yes
Forced                                   : No
Original source medium                   : Blu-ray

Text #2
ID                                       : 3
ID in the original source medium         : 4609 (0x1201)
Format                                   : PGS
Muxing mode                              : zlib
Codec ID                                 : S_HDMV/PGS
Codec ID/Info                            : Picture based subtitle format used on BDs/HD-DVDs
Duration                                 : 23 min 41 s
Bit rate                                 : 102 kb/s
Count of elements                        : 690
Stream size                              : 17.3 MiB (1%)
Title                                    : German Full
Language                                 : German
Default                                  : No
Forced                                   : No
Original source medium                   : Blu-ray

Menu
00:00:00.000                             : :Chapter 01
00:02:05.041                             : :Chapter 02
00:16:29.029                             : :Chapter 03
00:22:45.155                             : :Chapter 04
00:23:39.793                             : :Chapter 05


oie_bchbujbgr3vm3-png.30598

cooltext396117611400625-png.30739

720p EAC3
53743226CF.png

1080p EAC3
131FDF754E.png

1080p DTS-HD
B180C1551F.png

x265 720p EAC3
53743226CF.png

x265 1080p EAC3
08ABCC29C8.png


cooltext3961176114006251-png.30741

720p EAC3
C11CEF71AD.png

1080p EAC3
02D9DEC057.png

1080p DTS-HD
CDE748B30F.png

x265 720p EAC3
EF11423F08.png

x265 1080p EAC3
5345F4D8FC.png


To view the content, you need to Sign In or Register.

 
Zuletzt bearbeitet:

Kleinmike

Uploader
Otaku König
21 März 2021
284
4.710
93
Attack on Titan Staffel 3
進撃の巨人 Season 3 | Shingeki no Kyojin Season 3

12550.webp


Beschreibung:
Die nunmehr dritte Staffel der „Attack on Titan“-Anime-Adaption setzt nahtlos an die Geschehnisse ihrer Vorgängerstaffel an: Eren und seine Kameraden der 104. sind nun Teil des neu gegründeten Levi-Squads, dessen Aufgabe es ist, Eren und Historia zu beschützen. Doch Eren mit seiner neuen Titanen-Verhärtungstechnik und Historia mit all ihrem Wissen und ihrer Abstammung sind nicht nur für den Aufklärungstrupp rund um Erwin und Levi von großer Bedeutung … Auch andere Mächte sind daran interessiert, die beiden in ihre Finger zu bekommen, wenn auch zu gänzlich anderen Zwecken als Erwin! Dies bestätigt sich auch durch den brutalen Foltertod des Priesters, den Hanji an einen vermeintlich sicheren Ort brachte. Der Verdacht liegt nahe, dass die Militärpolizei ihre Finger im Spiel hat und ihr neuer (menschlicher) Gegner lässt auch nicht lang auf sich warten. Ein heißes Gefecht entbrennt zwischen Levi und einem alten Bekannten, an den er sich aus seiner Jugend nur zu gut erinnert …
Quelle: anisearch


Folgen: 22/22
Größe pro Folge: 1500 MB
Sprache: Deutsch | Japanisch
Untertitel: Deutsch
Jahr: 2018
Genres: Actiondrama, Abenteuer, Fantasy, Horror, Mystery, Psychodrama, Übermaßige Gewaltdarstellung
Auflösung: 1920x1080
Format: MKV
Videocodec: x265
Farbtiefe: 8bit
Audiocodec: EAC3
Releasergruppe: Hugo
Publisher: Kazé Deutschland
Hoster: Uploaded

Mediainfo:
Code:
Format                                   : Matroska
Format version                           : Version 4
File size                                : 1.28 GiB
Duration                                 : 23 min 55 s
Overall bit rate                         : 7 680 kb/s
Encoded date                             : UTC 2020-12-14 09:40:24
Writing application                      : mkvmerge v51.0.0 ('I Wish') 64-bit
Writing library                          : libebml v1.4.0 + libmatroska v1.6.2

Video
ID                                       : 1
ID in the original source medium         : 4113 (0x1011)
Format                                   : HEVC
Format/Info                              : High Efficiency Video Coding
Format profile                           : Main@L5@High
Codec ID                                 : V_MPEGH/ISO/HEVC
Duration                                 : 23 min 55 s
Bit rate                                 : 6 342 kb/s
Width                                    : 1 920 pixels
Height                                   : 1 080 pixels
Display aspect ratio                     : 16:9
Frame rate mode                          : Constant
Frame rate                               : 23.976 (24000/1001) FPS
Color space                              : YUV
Chroma subsampling                       : 4:2:0
Bit depth                                : 8 bits
Bits/(Pixel*Frame)                       : 0.128
Stream size                              : 1.06 GiB (83%)
Writing library                          : x265 3.4+27-g241342f25:[Windows][GCC 9.3.0][64 bit] 8bit+10bit+12bit
Encoding settings                        : cpuid=1111039 / frame-threads=4 / numa-pools=16 / wpp / no-pmode / no-pme / no-psnr / no-ssim / log-level=2 / input-csp=1 / input-res=1920x1080 / interlace=0 / total-frames=0 / level-idc=0 / high-tier=1 / uhd-bd=0 / ref=5 / no-allow-non-conformance / no-repeat-headers / annexb / no-aud / no-hrd / info / hash=0 / no-temporal-layers / open-gop / min-keyint=23 / keyint=250 / gop-lookahead=0 / bframes=8 / b-adapt=2 / b-pyramid / bframe-bias=0 / rc-lookahead=40 / lookahead-slices=0 / scenecut=40 / hist-scenecut=0 / radl=0 / no-splice / no-intra-refresh / ctu=64 / min-cu-size=8 / rect / amp / max-tu-size=32 / tu-inter-depth=3 / tu-intra-depth=3 / limit-tu=4 / rdoq-level=2 / dynamic-rd=0.00 / no-ssim-rd / signhide / no-tskip / nr-intra=0 / nr-inter=0 / no-constrained-intra / strong-intra-smoothing / max-merge=4 / limit-refs=1 / limit-modes / me=3 / subme=4 / merange=57 / temporal-mvp / no-frame-dup / no-hme / weightp / weightb / no-analyze-src-pics / deblock=0:0 / sao / no-sao-non-deblock / rd=6 / selective-sao=4 / no-early-skip / rskip / no-fast-intra / no-tskip-fast / no-cu-lossless / b-intra / no-splitrd-skip / rdpenalty=0 / psy-rd=2.00 / psy-rdoq=1.00 / no-rd-refine / no-lossless / cbqpoffs=0 / crqpoffs=0 / rc=crf / crf=15.0 / qcomp=0.60 / qpstep=4 / stats-write=0 / stats-read=0 / vbv-maxrate=60480 / vbv-bufsize=88960 / vbv-init=0.8 / min-vbv-fullness=50.0 / max-vbv-fullness=80.0 / crf-max=0.0 / crf-min=0.0 / ipratio=1.40 / pbratio=1.30 / aq-mode=2 / aq-strength=1.00 / cutree / zone-count=0 / no-strict-cbr / qg-size=32 / no-rc-grain / qpmax=69 / qpmin=0 / no-const-vbv / sar=1 / overscan=0 / videoformat=5 / range=0 / colorprim=2 / transfer=2 / colormatrix=2 / chromaloc=0 / display-window=0 / cll=0,0 / min-luma=0 / max-luma=255 / log2-max-poc-lsb=8 / vui-timing-info / vui-hrd-info / slices=1 / no-opt-qp-pps / no-opt-ref-list-length-pps / no-multi-pass-opt-rps / scenecut-bias=0.05 / hist-threshold=0.03 / no-opt-cu-delta-qp / no-aq-motion / no-hdr10 / no-hdr10-opt / no-dhdr10-opt / no-idr-recovery-sei / analysis-reuse-level=0 / analysis-save-reuse-level=0 / analysis-load-reuse-level=0 / scale-factor=0 / refine-intra=0 / refine-inter=0 / refine-mv=1 / refine-ctu-distortion=0 / no-limit-sao / ctu-info=0 / no-lowpass-dct / refine-analysis-type=0 / copy-pic=1 / max-ausize-factor=1.0 / no-dynamic-refine / no-single-sei / no-hevc-aq / no-svt / no-field / qp-adaptation-range=1.00 / no-scenecut-aware-qpconformance-window-offsets / right=0 / bottom=0 / decoder-max-rate=0 / no-vbv-live-multi-pass
Language                                 : English
Default                                  : Yes
Forced                                   : No
Color range                              : Limited
Original source medium                   : Blu-ray

Audio #1
ID                                       : 4
ID in the original source medium         : 4352 (0x1100)
Format                                   : E-AC-3
Format/Info                              : Enhanced AC-3
Commercial name                          : Dolby Digital Plus
Codec ID                                 : A_EAC3
Duration                                 : 23 min 55 s
Bit rate mode                            : Constant
Bit rate                                 : 640 kb/s
Channel(s)                               : 2 channels
Channel layout                           : L R
Sampling rate                            : 48.0 kHz
Frame rate                               : 31.250 FPS (1536 SPF)
Compression mode                         : Lossy
Stream size                              : 109 MiB (8%)
Title                                    : Stereo
Language                                 : German
Service kind                             : Complete Main
Default                                  : Yes
Forced                                   : No
Original source medium                   : Blu-ray

Audio #2
ID                                       : 5
ID in the original source medium         : 4353 (0x1101)
Format                                   : E-AC-3
Format/Info                              : Enhanced AC-3
Commercial name                          : Dolby Digital Plus
Codec ID                                 : A_EAC3
Duration                                 : 23 min 55 s
Bit rate mode                            : Constant
Bit rate                                 : 640 kb/s
Channel(s)                               : 2 channels
Channel layout                           : L R
Sampling rate                            : 48.0 kHz
Frame rate                               : 31.250 FPS (1536 SPF)
Compression mode                         : Lossy
Stream size                              : 109 MiB (8%)
Title                                    : Stereo
Language                                 : Japanese
Service kind                             : Complete Main
Default                                  : No
Forced                                   : No
Original source medium                   : Blu-ray

Text #1
ID                                       : 2
ID in the original source medium         : 4608 (0x1200)
Format                                   : PGS
Muxing mode                              : zlib
Codec ID                                 : S_HDMV/PGS
Codec ID/Info                            : Picture based subtitle format used on BDs/HD-DVDs
Duration                                 : 21 min 49 s
Bit rate                                 : 488 b/s
Count of elements                        : 8
Stream size                              : 78.0 KiB (0%)
Title                                    : German Forced
Language                                 : German
Default                                  : Yes
Forced                                   : No
Original source medium                   : Blu-ray

Text #2
ID                                       : 3
ID in the original source medium         : 4609 (0x1201)
Format                                   : PGS
Muxing mode                              : zlib
Codec ID                                 : S_HDMV/PGS
Codec ID/Info                            : Picture based subtitle format used on BDs/HD-DVDs
Duration                                 : 23 min 41 s
Bit rate                                 : 102 kb/s
Count of elements                        : 690
Stream size                              : 17.3 MiB (1%)
Title                                    : German Full
Language                                 : German
Default                                  : No
Forced                                   : No
Original source medium                   : Blu-ray

Menu
00:00:00.000                             : :Chapter 01
00:02:05.041                             : :Chapter 02
00:16:29.029                             : :Chapter 03
00:22:45.155                             : :Chapter 04
00:23:39.793                             : :Chapter 05
Status:
1080p:
7328663E09.png

To view the content, you need to Sign In or Register.