Welcome to our Community
Wanting to join the rest of our members? Feel free to sign up today.
Sign up

Battle Game in 5 Seconds | Deatte 5-byou de Battle [Ger-Dub][720p|1080p][Web-DL] - AoD

Azugo

H͓̽u͓̽g͓̽o͓̽ ͓̽&͓̽ ͓̽A͓̽z͓̽u͓̽r͓̽a͓̽
Otaku Gott
Uploader
25 März 2020
3.600
36.408
118

Battle Game in 5 Seconds | Deatte 5-byou de Battle



15747-png.30656



oie_bchbujbgr3vm-png.30595

anisearch.com schrieb:
Es gibt eigentlich nichts, das der Oberschüler Akira Shiroyanagi mehr liebt als seine Videospiele. Er ist so gut darin, dass nicht einmal der Unterricht seine Spielleistung zu vermindern vermag – und damit nicht genug: seine schulischen Leistungen befinden sich auf Spitzenniveau. Nun sind ihm mit der Zeit aber sowohl Schule als auch Videospiele immer langweiliger geworden, sodass er sich nach Abwechslung sehnt – nach etwas »Unvorhersehbarem«.

Sein Wunsch erfüllt sich schneller als gedacht und hat auch gravierende Konsequenzen: Auf dem Heimweg wird er von einem kräftig gebauten und bandagierten Schläger überfallen, schafft es dank seines Verstandes aber, diesen zu erledigen. Direkt nach dieser Begegnung, die Akira bislang als Spiel behandelt hat, erscheint jedoch eine mysteriöse, junge Frau, verkündet seine unausweichliche Niederlage und verletzt ihn so stark, dass er deswegen verblutet.

Sein vermeintlicher Tod ist jedoch keiner – als Akira wieder zu sich kommt, ist er nicht allein, denn offenbar teilen zahlreiche andere Menschen sein Schicksal. Die geheimnisvolle Frau, die sich als Mion vorstellt, erklärt, dass sie alle Teil eines Experimentes sind und für ihre Organisation Kämpfe austragen müssen, und zwar in den unterschiedlichsten Formaten. Damit die Angelegenheit abwechslungsreich wird, haben alle Kämpfer spezielle Fertigkeiten erhalten, aber auch eigenartige Handschellen, die ebendiese Fähigkeiten nach Belieben unterdrücken können. Für Akira steht fest, dass er sich nicht mit bloßem Überleben begnügen wird – er will dieses perfide Spiel auch gewinnen und die Organisation dabei zerstören; seine persönliche Fähigkeit soll ihm dabei mehr als nur nützlich sein …
Quelle: https://www.anisearch.de/anime/15747


oie_bchbujbgr3vm1-png.30596


Spieldauer: ~24min
Genre: Action
Nebengenres: Action, Drama, Fantasy, Fighting-Shounen
Jahr: 2021
Sprache: Deutsch
Untertitle: -
Größe pro Folge: ~528mb, ~2580mb
Episodenanzahl: 12/12
Format: MKV
Auflösung: 720p (16:9), 1080p (16:9)
Videocodec: H264 (AVC)
Audiocodec: AAC
Releasegruppe: Hugo
Hoster:
rapidgator-gif.30742
Rapidgator,
ddownload-gif.30720
ddownload


oie_bchbujbgr3vm2-png.30597

Code:
[color=Turquoise]Format  : Matroska
Format version  : Version 4
File size  : 528 MiB
Duration  : 23 min 40 s
Overall bit rate  : 3 116 kb/s
Encoded date  : UTC 2021-08-31 12:42:48
Writing application  : mkvmerge v60.0.0 ('Are We Copies?') 64-bit
Writing library  : libebml v1.4.2 + libmatroska v1.6.4

Video
ID  : 1
Format  : AVC
Format/Info  : Advanced Video Codec
Format profile  : High@L4
Format settings  : CABAC / 9 Ref Frames
Format settings, CABAC  : Yes
Format settings, Reference frames  : 9 frames
Codec ID  : V_MPEG4/ISO/AVC
Duration  : 23 min 40 s
Bit rate  : 2 858 kb/s
Width  : 1 280 pixels
Height  : 720 pixels
Display aspect ratio  : 16:9
Frame rate mode  : Constant
Frame rate  : 23.976 (24000/1001) FPS
Color space  : YUV
Chroma subsampling  : 4:2:0
Bit depth  : 8 bits
Scan type  : Progressive
Bits/(Pixel*Frame)  : 0.129
Stream size  : 484 MiB (92%)
Writing library  : x264 core 161 r3053 c347e7a
Encoding settings  : cabac=1 / ref=9 / deblock=1:0:-1 / analyse=0x3:0x133 / me=umh / subme=10 / psy=1 / psy_rd=0.60:0.10 / mixed_ref=1 / me_range=24 / chroma_me=1 / trellis=2 / 8x8dct=1 / cqm=0 / deadzone=21,11 / fast_pskip=1 / chroma_qp_offset=-3 / threads=12 / lookahead_threads=3 / sliced_threads=0 / nr=0 / decimate=0 / interlaced=0 / bluray_compat=0 / constrained_intra=0 / bframes=16 / b_pyramid=2 / b_adapt=2 / b_bias=0 / direct=3 / weightb=1 / open_gop=0 / weightp=2 / keyint=192 / keyint_min=19 / scenecut=0 / intra_refresh=0 / rc_lookahead=80 / rc=crf / mbtree=1 / crf=17.0 / qcomp=0.60 / qpmin=0 / qpmax=69 / qpstep=4 / vbv_maxrate=4096 / vbv_bufsize=10240 / crf_max=0.0 / nal_hrd=none / filler=0 / ip_ratio=1.40 / aq=3:1.10
Default  : Yes
Forced  : No

Audio
ID  : 2
Format  : AAC LC
Format/Info  : Advanced Audio Codec Low Complexity
Codec ID  : A_AAC-2
Duration  : 23 min 40 s
Bit rate  : 256 kb/s
Channel(s)  : 2 channels
Channel layout  : L R
Sampling rate  : 48.0 kHz
Frame rate  : 46.875 FPS (1024 SPF)
Compression mode  : Lossy
Delay relative to video  : -83 ms
Stream size  : 43.3 MiB (8%)
Default  : Yes
Forced  : No

[/color]
Code:
[color=Turquoise]Format  : Matroska
Format version  : Version 4
File size  : 2.58 GiB
Duration  : 23 min 40 s
Overall bit rate  : 15.6 Mb/s
Encoded date  : UTC 2021-08-31 12:42:35
Writing application  : mkvmerge v60.0.0 ('Are We Copies?') 64-bit
Writing library  : libebml v1.4.2 + libmatroska v1.6.4

Video
ID  : 1
Format  : AVC
Format/Info  : Advanced Video Codec
Format profile  : High@L5
Format settings  : CABAC / 12 Ref Frames
Format settings, CABAC  : Yes
Format settings, Reference frames  : 12 frames
Codec ID  : V_MPEG4/ISO/AVC
Duration  : 23 min 40 s
Bit rate  : 15.3 Mb/s
Width  : 1 920 pixels
Height  : 1 080 pixels
Display aspect ratio  : 16:9
Frame rate mode  : Constant
Frame rate  : 23.976 (24000/1001) FPS
Color space  : YUV
Chroma subsampling  : 4:2:0
Bit depth  : 8 bits
Scan type  : Progressive
Bits/(Pixel*Frame)  : 0.308
Stream size  : 2.53 GiB (98%)
Writing library  : x264 core 161 r3053 c347e7a
Encoding settings  : cabac=1 / ref=12 / deblock=1:0:-1 / analyse=0x3:0x133 / me=umh / subme=10 / psy=1 / psy_rd=0.70:0.15 / mixed_ref=1 / me_range=24 / chroma_me=1 / trellis=2 / 8x8dct=1 / cqm=0 / deadzone=21,11 / fast_pskip=1 / chroma_qp_offset=-3 / threads=24 / lookahead_threads=6 / sliced_threads=0 / nr=0 / decimate=0 / interlaced=0 / bluray_compat=0 / constrained_intra=0 / bframes=16 / b_pyramid=2 / b_adapt=2 / b_bias=0 / direct=3 / weightb=1 / open_gop=0 / weightp=2 / keyint=192 / keyint_min=19 / scenecut=0 / intra_refresh=0 / rc_lookahead=80 / rc=crf / mbtree=1 / crf=15.0 / qcomp=0.60 / qpmin=0 / qpmax=69 / qpstep=4 / vbv_maxrate=20480 / vbv_bufsize=40960 / crf_max=0.0 / nal_hrd=none / filler=0 / ip_ratio=1.40 / aq=3:1.10
Default  : Yes
Forced  : No

Audio
ID  : 2
Format  : AAC LC
Format/Info  : Advanced Audio Codec Low Complexity
Codec ID  : A_AAC-2
Duration  : 23 min 40 s
Bit rate  : 256 kb/s
Channel(s)  : 2 channels
Channel layout  : L R
Sampling rate  : 48.0 kHz
Frame rate  : 46.875 FPS (1024 SPF)
Compression mode  : Lossy
Delay relative to video  : -83 ms
Stream size  : 43.3 MiB (2%)
Default  : Yes
Forced  : No

[/color]



oie_bchbujbgr3vm3-png.30598

cooltext396117611400625-png.30739

7D5C3ACC1A.png

cooltext3961176114006251-png.30741

DCB9C9380B.png

To view the content, you need to Sign In or Register.

 
Zuletzt bearbeitet: