1. Die erweiterte Suche funktioniert wieder. Die LiveSearch ist vorübergehend deaktiviert

Wir verwenden Cookies, um deinen Aufenthalt auf Animes.so möglichst angenehm gestalten zu können. Mehr erfahren

Black Clover + Special [Laufend][Jap-Dub][Ger-Eng-Sub][720p|1080p][WebRip] - CR

Dieses Thema im Forum "Serien (GerSub)" wurde erstellt von Ta@, 25. Apr. 2018.

  1. Ta@

    Ta@ Treues Mitglied Seelenverkäufer

    Registriert seit:
    7. Juli 2016
    Beiträge:
    448
    Zustimmungen:
    16.746
    Black Clover (2017)
    Black Clover TV

    [​IMG]
    Kurzbeschreibung:

    Folgen: 79/?? + Special 1/1
    Größe pro Folge: 450 MB/1024 MB
    Folgendauer: ~24 Min
    Releaser: Ta@
    Art: Lizenzrelease
    Sprache: Japanisch
    Untertitel: Deutsch, Englisch
    Auflösung: 1280x720/1920x1080
    Format: MKV
    Quelle: WebRip
    Videocodec: x264
    Farbtiefe: 8Bit
    Audiocodec: AAC
    Hoster: Share-Online

    MediaInfo:
    General
    Unique ID : 253481636535722390783173750144279629430 (0xBEB2C9941252C463AF781BCDFA11CE76)
    Complete name : [Ta@]Black Clover 29 [Web,720p,AAC]\[Ta@]Black_Clover_01_[Web,720p,AAC].mkv
    Format : Matroska
    Format version : Version 4 / Version 2
    File size : 454 MiB
    Duration : 23 min 55 s
    Overall bit rate : 2 652 kb/s
    Encoded date : UTC 2017-10-03 12:39:09
    Writing application : mkvmerge v15.0.0 ('Duel with the Devil') 64-bit
    Writing library : libebml v1.3.5 + libmatroska v1.4.5

    Video
    ID : 1
    Format : AVC
    Format/Info : Advanced Video Codec
    Format profile : High@L4
    Format settings : CABAC / 6 Ref Frames
    Format settings, CABAC : Yes
    Format settings, RefFrames : 6 frames
    Codec ID : V_MPEG4/ISO/AVC
    Duration : 23 min 53 s
    Bit rate : 2 524 kb/s
    Width : 1 280 pixels
    Height : 720 pixels
    Display aspect ratio : 16:9
    Frame rate mode : Constant
    Frame rate : 23.976 (24000/1001) FPS
    Color space : YUV
    Chroma subsampling : 4:2:0
    Bit depth : 8 bits
    Scan type : Progressive
    Bits/(Pixel*Frame) : 0.114
    Stream size : 431 MiB (95%)
    Writing library : x264 core 142
    Encoding settings : cabac=1 / ref=6 / deblock=1:1:1 / analyse=0x3:0x113 / me=umh / subme=8 / psy=1 / psy_rd=0.40:0.00 / mixed_ref=1 / me_range=16 / chroma_me=1 / trellis=1 / 8x8dct=1 / cqm=0 / deadzone=21,11 / fast_pskip=1 / chroma_qp_offset=-2 / threads=10 / lookahead_threads=1 / sliced_threads=0 / nr=0 / decimate=1 / interlaced=0 / bluray_compat=0 / constrained_intra=0 / bframes=3 / b_pyramid=2 / b_adapt=2 / b_bias=0 / direct=3 / weightb=1 / open_gop=0 / weightp=2 / keyint=48 / keyint_min=24 / scenecut=40 / intra_refresh=0 / rc_lookahead=48 / rc=crf / mbtree=1 / crf=15.0 / qcomp=0.60 / qpmin=0 / qpmax=69 / qpstep=4 / vbv_maxrate=4000 / vbv_bufsize=6000 / crf_max=0.0 / nal_hrd=none / filler=0 / ip_ratio=1.40 / aq=1:0.60
    Default : Yes
    Forced : No

    Audio
    ID : 2
    Format : AAC
    Format/Info : Advanced Audio Codec
    Format profile : LC
    Codec ID : A_AAC-2
    Duration : 23 min 53 s
    Bit rate : 128 kb/s
    Channel(s) : 2 channels
    Channel positions : Front: L R
    Sampling rate : 44.1 kHz
    Frame rate : 43.066 FPS (1024 SPF)
    Compression mode : Lossy
    Delay relative to video : -83 ms
    Stream size : 21.9 MiB (5%)
    Default : Yes
    Forced : No

    Text #1
    ID : 3
    Format : ASS
    Codec ID : S_TEXT/ASS
    Codec ID/Info : Advanced Sub Station Alpha
    Duration : 23 min 41 s
    Bit rate : 144 b/s
    Count of elements : 427
    Compression mode : Lossless
    Stream size : 25.0 KiB (0%)
    Language : German
    Default : Yes
    Forced : No

    Text #2
    ID : 4
    Format : ASS
    Codec ID : S_TEXT/ASS
    Codec ID/Info : Advanced Sub Station Alpha
    Duration : 23 min 42 s
    Bit rate : 125 b/s
    Count of elements : 335
    Compression mode : Lossless
    Stream size : 21.8 KiB (0%)
    Language : English
    Default : No
    Forced : No

    Text #3
    ID : 5
    Format : ASS
    Codec ID : S_TEXT/ASS
    Codec ID/Info : Advanced Sub Station Alpha
    Duration : 23 min 42 s
    Bit rate : 139 b/s
    Count of elements : 349
    Compression mode : Lossless
    Stream size : 24.3 KiB (0%)
    Language : Italian
    Default : No
    Forced : No


    General
    Unique ID : 204055490828075701193486203877965504149 (0x9983A8735BF86101BFFB6CFEB4111E95)
    Complete name : [Ta@]Black Clover 30 [Web,1080p,AAC]\[Ta@]Black_Clover_01_[Web,1080p,AAC].mkv
    Format : Matroska
    Format version : Version 4 / Version 2
    File size : 1.02 GiB
    Duration : 23 min 55 s
    Overall bit rate : 6 109 kb/s
    Encoded date : UTC 2017-10-03 12:37:37
    Writing application : mkvmerge v15.0.0 ('Duel with the Devil') 64-bit
    Writing library : libebml v1.3.5 + libmatroska v1.4.5

    Video
    ID : 1
    Format : AVC
    Format/Info : Advanced Video Codec
    Format profile : High@L4
    Format settings : CABAC / 4 Ref Frames
    Format settings, CABAC : Yes
    Format settings, RefFrames : 4 frames
    Codec ID : V_MPEG4/ISO/AVC
    Duration : 23 min 53 s
    Bit rate : 5 985 kb/s
    Width : 1 920 pixels
    Height : 1 080 pixels
    Display aspect ratio : 16:9
    Frame rate mode : Constant
    Frame rate : 23.976 (24000/1001) FPS
    Color space : YUV
    Chroma subsampling : 4:2:0
    Bit depth : 8 bits
    Scan type : Progressive
    Bits/(Pixel*Frame) : 0.120
    Stream size : 1 023 MiB (98%)
    Writing library : x264 core 142
    Encoding settings : cabac=1 / ref=4 / deblock=1:1:1 / analyse=0x3:0x113 / me=umh / subme=8 / psy=1 / psy_rd=0.40:0.00 / mixed_ref=1 / me_range=16 / chroma_me=1 / trellis=1 / 8x8dct=1 / cqm=0 / deadzone=21,11 / fast_pskip=1 / chroma_qp_offset=-2 / threads=12 / lookahead_threads=2 / sliced_threads=0 / nr=0 / decimate=1 / interlaced=0 / bluray_compat=0 / constrained_intra=0 / bframes=3 / b_pyramid=2 / b_adapt=2 / b_bias=0 / direct=3 / weightb=1 / open_gop=0 / weightp=2 / keyint=48 / keyint_min=24 / scenecut=40 / intra_refresh=0 / rc_lookahead=48 / rc=crf / mbtree=1 / crf=15.0 / qcomp=0.60 / qpmin=0 / qpmax=69 / qpstep=4 / vbv_maxrate=8000 / vbv_bufsize=12000 / crf_max=0.0 / nal_hrd=none / filler=0 / ip_ratio=1.40 / aq=1:0.60
    Default : Yes
    Forced : No

    Audio
    ID : 2
    Format : AAC
    Format/Info : Advanced Audio Codec
    Format profile : LC
    Codec ID : A_AAC-2
    Duration : 23 min 53 s
    Bit rate : 128 kb/s
    Channel(s) : 2 channels
    Channel positions : Front: L R
    Sampling rate : 44.1 kHz
    Frame rate : 43.066 FPS (1024 SPF)
    Compression mode : Lossy
    Delay relative to video : -83 ms
    Stream size : 21.9 MiB (2%)
    Default : Yes
    Forced : No

    Text #1
    ID : 3
    Format : ASS
    Codec ID : S_TEXT/ASS
    Codec ID/Info : Advanced Sub Station Alpha
    Duration : 23 min 41 s
    Bit rate : 144 b/s
    Count of elements : 427
    Compression mode : Lossless
    Stream size : 25.0 KiB (0%)
    Language : German
    Default : Yes
    Forced : No

    Text #2
    ID : 4
    Format : ASS
    Codec ID : S_TEXT/ASS
    Codec ID/Info : Advanced Sub Station Alpha
    Duration : 23 min 42 s
    Bit rate : 125 b/s
    Count of elements : 335
    Compression mode : Lossless
    Stream size : 21.8 KiB (0%)
    Language : English
    Default : No
    Forced : No

    Text #3
    ID : 5
    Format : ASS
    Codec ID : S_TEXT/ASS
    Codec ID/Info : Advanced Sub Station Alpha
    Duration : 23 min 42 s
    Bit rate : 139 b/s
    Count of elements : 349
    Compression mode : Lossless
    Stream size : 24.3 KiB (0%)
    Language : Italian
    Default : No
    Forced : No



    720p:[​IMG]1080p[​IMG]
    Geschützter Bereich
    Registriere dich oder logge dich ein, um den Inhalt sehen zu können
     
    Zuletzt bearbeitet: 16. Apr. 2019 um 17:24 Uhr
    Cande, Ookami77, wabba11 und 178 anderen gefällt das.
  2. Ta@

    Ta@ Treues Mitglied Seelenverkäufer

    Registriert seit:
    7. Juli 2016
    Beiträge:
    448
    Zustimmungen:
    16.746
    ~Folge 79 online~
     
    chopper23 gefällt das.