Wir verwenden Cookies, um deinen Aufenthalt auf Animes.so möglichst angenehm gestalten zu können. Mehr erfahren

Boku no Hero Academia the Movie: Futari no Hero | My Hero Academia: Two Heroes [VOLL][Jap-Dub][Ger-Sub][720p|1080p][WebRip] - iND

Dieses Thema im Forum "Download Archiv" wurde erstellt von Ta@, 17. Feb. 2019.

  1. Ta@

    Ta@ Erfahrener Otaku Otaku König

    Registriert seit:
    7. Juli 2016
    Beiträge:
    219
    Zustimmungen:
    18.438
    Boku no Hero Academia the Movie: Futari no Hero
    My Hero Academia: Two Heroes
    My Hero Academia the Movie: The Two Heroes

    [​IMG]
    [​IMG]

    Das Finale ist vorbei und die U. A. bereitet sich auf das Sommertrainingslager vor. Midoriya Izuku und All Might erhalten eine Einladung von einer bestimmten Person, nach Übersee in eine riesige, künstliche, bewegliche Stadt namens I-Island zu gehen. Diese Insel, eine Art „Forschungs-Hollywood“, die das Wissen von Wissenschaftlern aus der ganzen Welt sammelt, veranstaltet eine Ausstellung, die I-Expo, die die Ergebnisse von Quirk- und Heldenausrüstungforschung präsentiert. Inmitten all dessen trifft Izuku ein quirkloses Mädchen namens Melissa und erinnert sich an seine eigene Vergangenheit. Aus heiterem Himmel wird das unbezwingbare Sicherheitssystem der Insel von Schurken gehackt und alle Menschen auf der Insel werden als Geiseln genommen! Nun wurde ein Plan in Gang gesetzt, der die Heldengesellschaft erschüttern könnte! Der Mann, der den Schlüssel zu allem hat, ist der Held Nummer eins und Symbol des Friedens, All Might.

    Folgen: 1/1
    Größe pro Folge: ~1155 MB/~2180 MB
    Folgendauer: ~95 Min
    Releaser: iND
    Art: Fansub
    Sprache: Japanisch
    Untertitel: Deutsch
    Jahr: 2018
    Genres: Action, Komödie
    Auflösung: 1280x720/1920x1080
    Format: MKV
    Quelle: WebRip
    Videocodec: x264
    Farbtiefe: 8Bit
    Audiocodec: AAC
    Publisher: iND
    Hoster: Share-Online

    [​IMG]
    Code:
    General Complete name : My_Hero_Academia_-_Two_Heroes_[720p].mkv Format : Matroska Format version : Version 4 File size : 1.13 GiB Duration : 1 h 35 min Overall bit rate : 1 690 kb/s Encoded date : UTC 2019-02-17 07:57:18 Writing application : mkvmerge v10.0.0 ('To Drown In You') 64bit Writing library : libebml v1.3.4 + libmatroska v1.4.5 Video ID : 1 Format : AVC Format/Info : Advanced Video Codec Format profile : High@L3.1 Format settings : CABAC / 5 Ref Frames Format settings, CABAC : Yes Format settings, RefFrames : 5 frames Codec ID : V_MPEG4/ISO/AVC Duration : 1 h 35 min Bit rate : 1 499 kb/s Width : 1 280 pixels Height : 720 pixels Display aspect ratio : 16:9 Frame rate mode : Constant Frame rate : 23.976 (24000/1001) FPS Color space : YUV Chroma subsampling : 4:2:0 Bit depth : 8 bits Scan type : Progressive Bits/(Pixel*Frame) : 0.068 Stream size : 1.00 GiB (89%) Default : Yes Forced : No Color range : Limited Color primaries : BT.709 Transfer characteristics : BT.709 Matrix coefficients : BT.709 Audio ID : 2 Format : AAC LC Format/Info : Advanced Audio Codec Low Complexity Codec ID : A_AAC-2 Duration : 1 h 35 min Bit rate : 192 kb/s Channel(s) : 2 channels Channel layout : L R Sampling rate : 48.0 kHz Frame rate : 46.875 FPS (1024 SPF) Compression mode : Lossy Delay relative to video : 11 ms Stream size : 130 MiB (11%) Language : English Default : Yes Forced : No ​
    Code:
    General Complete name : My_Hero_Academia_-_Two_Heroes_[1080p].mkv Format : Matroska Format version : Version 4 File size : 2.13 GiB Duration : 1 h 35 min Overall bit rate : 3 187 kb/s Encoded date : UTC 2019-02-17 07:54:42 Writing application : mkvmerge v10.0.0 ('To Drown In You') 64bit Writing library : libebml v1.3.4 + libmatroska v1.4.5 Video ID : 1 Format : AVC Format/Info : Advanced Video Codec Format profile : Main@L4.1 Format settings : CABAC / 4 Ref Frames Format settings, CABAC : Yes Format settings, RefFrames : 4 frames Codec ID : V_MPEG4/ISO/AVC Duration : 1 h 35 min Bit rate : 2 995 kb/s Width : 1 920 pixels Height : 1 080 pixels Display aspect ratio : 16:9 Frame rate mode : Constant Frame rate : 23.976 (24000/1001) FPS Standard : NTSC Color space : YUV Chroma subsampling : 4:2:0 Bit depth : 8 bits Scan type : Progressive Bits/(Pixel*Frame) : 0.060 Stream size : 2.00 GiB (94%) Default : Yes Forced : No Color range : Limited Color primaries : BT.709 Transfer characteristics : BT.709 Matrix coefficients : BT.709 Audio ID : 2 Format : AAC LC Format/Info : Advanced Audio Codec Low Complexity Codec ID : A_AAC-2 Duration : 1 h 35 min Bit rate : 192 kb/s Channel(s) : 2 channels Channel layout : L R Sampling rate : 48.0 kHz Frame rate : 46.875 FPS (1024 SPF) Compression mode : Lossy Delay relative to video : 1 ms Stream size : 130 MiB (6%) Default : Yes Forced : No ​

    Anmerkung:
    Die Untertitel sind im Video eingebrannt.

    720p:[​IMG]1080p:[​IMG]

    Geschützter Bereich
    Registriere dich oder logge dich ein, um den Inhalt sehen zu können
     
    Raven, Zeigerful, Tschu23 und 88 anderen gefällt das.

Diese Seite empfehlen