Welcome to our Community
Wanting to join the rest of our members? Feel free to sign up today.
Sign up

Cencoroll Connect [Ger-Dub][EAC3][720p][1080p][WebRip] - Amazon

Azugo

H͓̽u͓̽g͓̽o͓̽ ͓̽&͓̽ ͓̽A͓̽z͓̽u͓̽r͓̽a͓̽
Otaku Gott
Uploader
25 März 2020
3.600
36.408
118

Cencoroll Connect



rPeFYdx.png



KumRy1U.png

AniSearch.com schrieb:


eLhoHQ8.png


Spieldauer: ~75min
Genre: Action
Nebengenres: Action, Fantasy, Scifi
Jahr: 2019
Sprache: Deutsch
Untertitle: nur Forced Subs
Größe pro Folge: ~1472mb, ~2108mb
Episodenanzahl: 1/1
Format: MKV
Auflösung: 720p (16:9), 1080p (16:9)
Videocodec: H264 (AVC)
Audiocodec: EAC3
Releasegruppe: Hugo
Hoster: ddownload, Rapidgator


99Ls7cm.png

Code:
[color=Turquoise]Format                                   : Matroska
Format version                           : Version 4
File size                                : 1.47 GiB
Duration                                 : 1 h 11 min
Overall bit rate                         : 2 958 kb/s
Encoded date                             : UTC 2021-02-15 13:28:16
Writing application                      : mkvmerge v53.0.0 ('Fool's Gold') 64-bit
Writing library                          : libebml v1.4.1 + libmatroska v1.6.2

Video
ID                                       : 1
Format                                   : AVC
Format/Info                              : Advanced Video Codec
Format profile                           : High@L4
Format settings                          : CABAC / 4 Ref Frames
Format settings, CABAC                   : Yes
Format settings, Reference frames        : 4 frames
Codec ID                                 : V_MPEG4/ISO/AVC
Duration                                 : 1 h 11 min
Bit rate                                 : 2 700 kb/s
Width                                    : 1 280 pixels
Height                                   : 720 pixels
Display aspect ratio                     : 16:9
Frame rate mode                          : Constant
Frame rate                               : 25.000 FPS
Color space                              : YUV
Chroma subsampling                       : 4:2:0
Bit depth                                : 8 bits
Scan type                                : Progressive
Bits/(Pixel*Frame)                       : 0.117
Stream size                              : 1.35 GiB (91%)
Default                                  : Yes
Forced                                   : No

Audio
ID                                       : 2
Format                                   : E-AC-3
Format/Info                              : Enhanced AC-3
Commercial name                          : Dolby Digital Plus
Codec ID                                 : A_EAC3
Duration                                 : 1 h 11 min
Bit rate mode                            : Constant
Bit rate                                 : 256 kb/s
Channel(s)                               : 2 channels
Channel layout                           : L R
Sampling rate                            : 48.0 kHz
Frame rate                               : 31.250 FPS (1536 SPF)
Compression mode                         : Lossy
Stream size                              : 131 MiB (9%)
Language                                 : German
Service kind                             : Complete Main
Default                                  : Yes
Forced                                   : No

[/color]
Code:
[color=Turquoise]Format                                   : Matroska
Format version                           : Version 4
File size                                : 2.10 GiB
Duration                                 : 1 h 11 min
Overall bit rate                         : 4 221 kb/s
Encoded date                             : UTC 2021-02-15 13:27:53
Writing application                      : mkvmerge v53.0.0 ('Fool's Gold') 64-bit
Writing library                          : libebml v1.4.1 + libmatroska v1.6.2

Video
ID                                       : 1
Format                                   : AVC
Format/Info                              : Advanced Video Codec
Format profile                           : High@L4
Format settings                          : CABAC / 4 Ref Frames
Format settings, CABAC                   : Yes
Format settings, Reference frames        : 4 frames
Codec ID                                 : V_MPEG4/ISO/AVC
Duration                                 : 1 h 11 min
Bit rate                                 : 3 963 kb/s
Width                                    : 1 920 pixels
Height                                   : 1 080 pixels
Display aspect ratio                     : 16:9
Frame rate mode                          : Constant
Frame rate                               : 25.000 FPS
Color space                              : YUV
Chroma subsampling                       : 4:2:0
Bit depth                                : 8 bits
Scan type                                : Progressive
Bits/(Pixel*Frame)                       : 0.076
Stream size                              : 1.98 GiB (94%)
Default                                  : Yes
Forced                                   : No

Audio
ID                                       : 2
Format                                   : E-AC-3
Format/Info                              : Enhanced AC-3
Commercial name                          : Dolby Digital Plus
Codec ID                                 : A_EAC3
Duration                                 : 1 h 11 min
Bit rate mode                            : Constant
Bit rate                                 : 256 kb/s
Channel(s)                               : 2 channels
Channel layout                           : L R
Sampling rate                            : 48.0 kHz
Frame rate                               : 31.250 FPS (1536 SPF)
Compression mode                         : Lossy
Stream size                              : 131 MiB (6%)
Language                                 : German
Service kind                             : Complete Main
Default                                  : Yes
Forced                                   : No

[/color]



Status:
cooltext396117611400625-png.30739

8B0033AB66.png

cooltext3961176114006251-png.30741

BEED191001.png

To view the content, you need to Sign In or Register.

 
Zuletzt bearbeitet: