Welcome to our Community
Wanting to join the rest of our members? Feel free to sign up today.
Sign up

DanMachi: Arrow of the Orion + Extra (Die Vergeschichte) | Gekijouban Dungeon ni Deai o Motomeru no wa Machigatte Iru Darou ka: Orion no Ya [Ger-Jap-Dub][Ger-Sub][720p][1080p][BluRay] - Hugo

Azugo

H͓̽u͓̽g͓̽o͓̽ ͓̽&͓̽ ͓̽A͓̽z͓̽u͓̽r͓̽a͓̽
Otaku Gott
Uploader
25 März 2020
3.600
36.442
118

DanMachi: Arrow of the Orion + Extra (Die Vergeschichte)
Gekijouban Dungeon ni Deai o Motomeru no wa Machigatte Iru Darou ka: Orion no Ya




Bf3Lx5v.png



oie_bchbujbgr3vm-png.30595
AniSearch.com schrieb:
In »Gekijouban Dungeon ni Deai o Motomeru no wa Machigatte Iru Darou ka: Orion no Ya«, dem Anime-Film zu »Danmachi«, folgen wir erneut Bell Cranel und seinen Freunden auf ihren Abenteuern. Bell, der mittlerweile ziemlich beliebt ist, macht sich wie jeden Tag auf zum Dungeon, um sich sein täglich Brot zu verdienen. Auf dem Weg bekommt er nicht nur vom örtlichen Obsthändler einen Apfel geschenkt, sondern natürlich auch ein leckeres Bento für unterwegs von der bezaubernden Kellnerin Syr. Als er so mit seiner Trägerin Lili und seinem Gefährten Welf im Dungeon ist, beschließen die drei heute ein wenig mehr Monster zu erlegen – schließlich findet heute Nacht ein großes Fest statt und da möchte man sich doch mal etwas gönnen!Während Bell gemeinsam mit Hestia, Lili und Welf von Stand zu Stand spaziert und Hestia und Lili sich wie üblich um »ihren Bell« streiten, hören sie die Ansagen Hermes’. Dieser bietet einen Wettkampf an: Ein großer Preis winkt dem Abenteurer, der eine Lanze aus einem Block Eis ziehen kann! Auch wenn so manch ein mächtiger Abenteurer daran scheitert, ist diese Aufgabe ein Leichtes für unseren Argonauten, doch was ihm nun bevorsteht, überrascht alle … Der Wettkampf war ein Auswahlverfahren der Göttin Artemis und Bell ist nun ihr auserwählter Champion – ihr Orion –, der gemeinsam mit ihr in die Schlacht ziehen muss, um die mysteriöse Bedrohung zu bezwingen, die außerhalb Orarios in weit entfernten, uralten Ruinen lauert.Auch wenn er ein Abenteurer der Hestia-Familia und nun auch noch Artemis’ auserwählter Krieger ist, findet Bell sich doch in ein Abenteuer verwickelt, das jede seiner Fähigkeiten auf die Probe stellen und ihm einiges an Mut abverlangen wird – und vielleicht aus ihm den Helden macht, der er immer sein wollte …! Quelle: www.anisearch.de/anime/13353



oie_bchbujbgr3vm1-png.30596


Spieldauer: ~82min
Genre: Actiondrama
Nebengenres: Abenteuer, Action, Drama, Ecchi, Fantasy, Ganbatte, Komödie, Romanze
Jahr: 2019
Sprache:
Deutsch.png
Deutsch,
Japanisch.png
Japanisch
Untertitel:
Deutsch.png
Deutsch
Größe pro Folge: ~2490mb,~6733mb, ~9886mb, ~844mb, ~2470mb, ~2866mb
Episodenanzahl: 1/1
Format: MKV
Auflösung: 720p (16:9), 1080p (16:9)
Videocodec: H264 (AVC)
Audiocodec: E-AC-3, DTS
Releasegruppe: Hugo
Hoster:
rapidgator-gif.30742
Rapidgator,
ddownload-gif.30720
ddownload


oie_bchbujbgr3vm2-png.30597

Rich (BBCode):
Format                                   : Matroska
Format version                           : Version 4
File size                                : 2.43 GiB
Duration                                 : 1 h 22 min
Overall bit rate                         : 4 229 kb/s
Encoded date                             : UTC 2020-11-23 10:50:59
Writing application                      : mkvmerge v51.0.0 ('I Wish') 64-bit
Writing library                          : libebml v1.4.0 + libmatroska v1.6.2

Video
ID                                       : 1
ID in the original source medium         : 4113 (0x1011)
Format                                   : AVC
Format/Info                              : Advanced Video Codec
Format profile                           : High@L5
Format settings                          : CABAC / 12 Ref Frames
Format settings, CABAC                   : Yes
Format settings, Reference frames        : 12 frames
Codec ID                                 : V_MPEG4/ISO/AVC
Duration                                 : 1 h 22 min
Bit rate                                 : 2 928 kb/s
Width                                    : 1 280 pixels
Height                                   : 720 pixels
Display aspect ratio                     : 16:9
Frame rate mode                          : Constant
Frame rate                               : 23.976 (23976/1000) FPS
Color space                              : YUV
Chroma subsampling                       : 4:2:0
Bit depth                                : 8 bits
Scan type                                : Progressive
Bits/(Pixel*Frame)                       : 0.133
Stream size                              : 1.68 GiB (69%)
Writing library                          : x264 core 161
Language                                 : English
Default                                  : Yes
Forced                                   : No
Original source medium                   : Blu-ray

Audio #1
ID                                       : 4
ID in the original source medium         : 4352 (0x1100)
Format                                   : E-AC-3
Format/Info                              : Enhanced AC-3
Commercial name                          : Dolby Digital Plus
Codec ID                                 : A_EAC3
Duration                                 : 1 h 22 min
Bit rate mode                            : Constant
Bit rate                                 : 640 kb/s
Channel(s)                               : 6 channels
Channel layout                           : L R C LFE Ls Rs
Sampling rate                            : 48.0 kHz
Frame rate                               : 31.250 FPS (1536 SPF)
Compression mode                         : Lossy
Stream size                              : 377 MiB (15%)
Title                                    : Surround 5.1
Language                                 : German
Service kind                             : Complete Main
Default                                  : Yes
Forced                                   : No
Original source medium                   : Blu-ray

Audio #2
ID                                       : 5
ID in the original source medium         : 4353 (0x1101)
Format                                   : E-AC-3
Format/Info                              : Enhanced AC-3
Commercial name                          : Dolby Digital Plus
Codec ID                                 : A_EAC3
Duration                                 : 1 h 22 min
Bit rate mode                            : Constant
Bit rate                                 : 640 kb/s
Channel(s)                               : 6 channels
Channel layout                           : L R C LFE Ls Rs
Sampling rate                            : 48.0 kHz
Frame rate                               : 31.250 FPS (1536 SPF)
Compression mode                         : Lossy
Stream size                              : 377 MiB (15%)
Title                                    : Surround 5.1
Language                                 : Japanese
Service kind                             : Complete Main
Default                                  : No
Forced                                   : No
Original source medium                   : Blu-ray

Text #1
ID                                       : 2
ID in the original source medium         : 4608 (0x1200)
Format                                   : PGS
Muxing mode                              : zlib
Codec ID                                 : S_HDMV/PGS
Codec ID/Info                            : Picture based subtitle format used on BDs/HD-DVDs
Duration                                 : 1 h 16 min
Bit rate                                 : 1 266 b/s
Count of elements                        : 109
Stream size                              : 709 KiB (0%)
Title                                    : German Forced
Language                                 : German
Default                                  : Yes
Forced                                   : No
Original source medium                   : Blu-ray

Text #2
ID                                       : 3
ID in the original source medium         : 4609 (0x1201)
Format                                   : PGS
Muxing mode                              : zlib
Codec ID                                 : S_HDMV/PGS
Codec ID/Info                            : Picture based subtitle format used on BDs/HD-DVDs
Duration                                 : 1 h 19 min
Bit rate                                 : 41.3 kb/s
Count of elements                        : 2637
Stream size                              : 23.6 MiB (1%)
Title                                    : German Full
Language                                 : German
Default                                  : No
Forced                                   : No
Original source medium                   : Blu-ray

Menu
00:00:00.000                             : :Chapter 01
00:18:41.787                             : :Chapter 02
00:36:14.714                             : :Chapter 03
00:54:28.139                             : :Chapter 04

Rich (BBCode):
Format                                   : Matroska
Format version                           : Version 4
File size                                : 6.58 GiB
Duration                                 : 1 h 22 min
Overall bit rate                         : 11.4 Mb/s
Encoded date                             : UTC 2020-11-23 13:30:48
Writing application                      : mkvmerge v51.0.0 ('I Wish') 64-bit
Writing library                          : libebml v1.4.0 + libmatroska v1.6.2

Video
ID                                       : 1
ID in the original source medium         : 4113 (0x1011)
Format                                   : AVC
Format/Info                              : Advanced Video Codec
Format profile                           : High@L5
Format settings                          : CABAC / 14 Ref Frames
Format settings, CABAC                   : Yes
Format settings, Reference frames        : 14 frames
Codec ID                                 : V_MPEG4/ISO/AVC
Duration                                 : 1 h 22 min
Bit rate                                 : 10.1 Mb/s
Width                                    : 1 920 pixels
Height                                   : 1 080 pixels
Display aspect ratio                     : 16:9
Frame rate mode                          : Constant
Frame rate                               : 23.976 (23976/1000) FPS
Color space                              : YUV
Chroma subsampling                       : 4:2:0
Bit depth                                : 8 bits
Scan type                                : Progressive
Bits/(Pixel*Frame)                       : 0.204
Stream size                              : 5.83 GiB (89%)
Writing library                          : x264 core 161
Language                                 : English
Default                                  : Yes
Forced                                   : No
Original source medium                   : Blu-ray

Audio #1
ID                                       : 4
ID in the original source medium         : 4352 (0x1100)
Format                                   : E-AC-3
Format/Info                              : Enhanced AC-3
Commercial name                          : Dolby Digital Plus
Codec ID                                 : A_EAC3
Duration                                 : 1 h 22 min
Bit rate mode                            : Constant
Bit rate                                 : 640 kb/s
Channel(s)                               : 6 channels
Channel layout                           : L R C LFE Ls Rs
Sampling rate                            : 48.0 kHz
Frame rate                               : 31.250 FPS (1536 SPF)
Compression mode                         : Lossy
Stream size                              : 377 MiB (6%)
Title                                    : Surround 5.1
Language                                 : German
Service kind                             : Complete Main
Default                                  : Yes
Forced                                   : No
Original source medium                   : Blu-ray

Audio #2
ID                                       : 5
ID in the original source medium         : 4353 (0x1101)
Format                                   : E-AC-3
Format/Info                              : Enhanced AC-3
Commercial name                          : Dolby Digital Plus
Codec ID                                 : A_EAC3
Duration                                 : 1 h 22 min
Bit rate mode                            : Constant
Bit rate                                 : 640 kb/s
Channel(s)                               : 6 channels
Channel layout                           : L R C LFE Ls Rs
Sampling rate                            : 48.0 kHz
Frame rate                               : 31.250 FPS (1536 SPF)
Compression mode                         : Lossy
Stream size                              : 377 MiB (6%)
Title                                    : Surround 5.1
Language                                 : Japanese
Service kind                             : Complete Main
Default                                  : No
Forced                                   : No
Original source medium                   : Blu-ray

Text #1
ID                                       : 2
ID in the original source medium         : 4608 (0x1200)
Format                                   : PGS
Muxing mode                              : zlib
Codec ID                                 : S_HDMV/PGS
Codec ID/Info                            : Picture based subtitle format used on BDs/HD-DVDs
Duration                                 : 1 h 16 min
Bit rate                                 : 1 266 b/s
Count of elements                        : 109
Stream size                              : 709 KiB (0%)
Title                                    : German Forced
Language                                 : German
Default                                  : Yes
Forced                                   : No
Original source medium                   : Blu-ray

Text #2
ID                                       : 3
ID in the original source medium         : 4609 (0x1201)
Format                                   : PGS
Muxing mode                              : zlib
Codec ID                                 : S_HDMV/PGS
Codec ID/Info                            : Picture based subtitle format used on BDs/HD-DVDs
Duration                                 : 1 h 19 min
Bit rate                                 : 41.3 kb/s
Count of elements                        : 2637
Stream size                              : 23.6 MiB (0%)
Title                                    : German Full
Language                                 : German
Default                                  : No
Forced                                   : No
Original source medium                   : Blu-ray

Menu
00:00:00.000                             : :Chapter 01
00:18:41.787                             : :Chapter 02
00:36:14.714                             : :Chapter 03
00:54:28.139                             : :Chapter 04

Rich (BBCode):
Format                                   : Matroska
Format version                           : Version 4
File size                                : 9.65 GiB
Duration                                 : 1 h 22 min
Overall bit rate mode                    : Variable
Overall bit rate                         : 16.8 Mb/s
Encoded date                             : UTC 2020-11-23 13:21:49
Writing application                      : mkvmerge v51.0.0 ('I Wish') 64-bit
Writing library                          : libebml v1.4.0 + libmatroska v1.6.2

Video
ID                                       : 1
ID in the original source medium         : 4113 (0x1011)
Format                                   : AVC
Format/Info                              : Advanced Video Codec
Format profile                           : High@L5
Format settings                          : CABAC / 14 Ref Frames
Format settings, CABAC                   : Yes
Format settings, Reference frames        : 14 frames
Codec ID                                 : V_MPEG4/ISO/AVC
Duration                                 : 1 h 22 min
Bit rate                                 : 10.1 Mb/s
Width                                    : 1 920 pixels
Height                                   : 1 080 pixels
Display aspect ratio                     : 16:9
Frame rate mode                          : Constant
Frame rate                               : 23.976 (24000/1001) FPS
Color space                              : YUV
Chroma subsampling                       : 4:2:0
Bit depth                                : 8 bits
Scan type                                : Progressive
Bits/(Pixel*Frame)                       : 0.204
Stream size                              : 5.83 GiB (60%)
Writing library                          : x264 core 161
Language                                 : English
Default                                  : Yes
Forced                                   : No
Original source medium                   : Blu-ray

Audio #1
ID                                       : 4
ID in the original source medium         : 4352 (0x1100)
Format                                   : DTS XLL
Format/Info                              : Digital Theater Systems
Commercial name                          : DTS-HD Master Audio
Codec ID                                 : A_DTS
Duration                                 : 1 h 22 min
Bit rate mode                            : Variable
Bit rate                                 : 3 391 kb/s
Channel(s)                               : 6 channels
Channel layout                           : C L R Ls Rs LFE
Sampling rate                            : 48.0 kHz
Frame rate                               : 93.750 FPS (512 SPF)
Bit depth                                : 24 bits
Compression mode                         : Lossless
Stream size                              : 1.95 GiB (20%)
Title                                    : Surround 5.1
Language                                 : German
Default                                  : Yes
Forced                                   : No
Original source medium                   : Blu-ray

Audio #2
ID                                       : 5
ID in the original source medium         : 4353 (0x1101)
Format                                   : DTS XLL
Format/Info                              : Digital Theater Systems
Commercial name                          : DTS-HD Master Audio
Codec ID                                 : A_DTS
Duration                                 : 1 h 22 min
Bit rate mode                            : Variable
Bit rate                                 : 3 238 kb/s
Channel(s)                               : 6 channels
Channel layout                           : C L R Ls Rs LFE
Sampling rate                            : 48.0 kHz
Frame rate                               : 93.750 FPS (512 SPF)
Bit depth                                : 24 bits
Compression mode                         : Lossless
Stream size                              : 1.86 GiB (19%)
Title                                    : Surround 5.1
Language                                 : Japanese
Default                                  : No
Forced                                   : No
Original source medium                   : Blu-ray

Text #1
ID                                       : 2
ID in the original source medium         : 4608 (0x1200)
Format                                   : PGS
Muxing mode                              : zlib
Codec ID                                 : S_HDMV/PGS
Codec ID/Info                            : Picture based subtitle format used on BDs/HD-DVDs
Duration                                 : 1 h 16 min
Bit rate                                 : 1 266 b/s
Count of elements                        : 109
Stream size                              : 709 KiB (0%)
Title                                    : German Forced
Language                                 : German
Default                                  : Yes
Forced                                   : No
Original source medium                   : Blu-ray

Text #2
ID                                       : 3
ID in the original source medium         : 4609 (0x1201)
Format                                   : PGS
Muxing mode                              : zlib
Codec ID                                 : S_HDMV/PGS
Codec ID/Info                            : Picture based subtitle format used on BDs/HD-DVDs
Duration                                 : 1 h 19 min
Bit rate                                 : 41.3 kb/s
Count of elements                        : 2637
Stream size                              : 23.6 MiB (0%)
Title                                    : German Full
Language                                 : German
Default                                  : No
Forced                                   : No
Original source medium                   : Blu-ray

Rich (BBCode):
Format                                   : Matroska
Format version                           : Version 4
File size                                : 844 MiB
Duration                                 : 23 min 44 s
Overall bit rate                         : 4 970 kb/s
Encoded date                             : UTC 2020-11-23 11:42:29
Writing application                      : mkvmerge v51.0.0 ('I Wish') 64-bit
Writing library                          : libebml v1.4.0 + libmatroska v1.6.2

Video
ID                                       : 1
ID in the original source medium         : 4113 (0x1011)
Format                                   : AVC
Format/Info                              : Advanced Video Codec
Format profile                           : High@L5
Format settings                          : CABAC / 12 Ref Frames
Format settings, CABAC                   : Yes
Format settings, Reference frames        : 12 frames
Codec ID                                 : V_MPEG4/ISO/AVC
Duration                                 : 23 min 44 s
Bit rate                                 : 3 655 kb/s
Width                                    : 1 280 pixels
Height                                   : 720 pixels
Display aspect ratio                     : 16:9
Frame rate mode                          : Constant
Frame rate                               : 23.976 (24000/1001) FPS
Color space                              : YUV
Chroma subsampling                       : 4:2:0
Bit depth                                : 8 bits
Scan type                                : Progressive
Bits/(Pixel*Frame)                       : 0.165
Stream size                              : 621 MiB (74%)
Writing library                          : x264 core 161
Language                                 : English
Default                                  : Yes
Forced                                   : No
Original source medium                   : Blu-ray

Audio #1
ID                                       : 4
ID in the original source medium         : 4352 (0x1100)
Format                                   : E-AC-3
Format/Info                              : Enhanced AC-3
Commercial name                          : Dolby Digital Plus
Codec ID                                 : A_EAC3
Duration                                 : 23 min 44 s
Bit rate mode                            : Constant
Bit rate                                 : 640 kb/s
Channel(s)                               : 2 channels
Channel layout                           : L R
Sampling rate                            : 48.0 kHz
Frame rate                               : 31.250 FPS (1536 SPF)
Compression mode                         : Lossy
Stream size                              : 109 MiB (13%)
Title                                    : Stereo
Language                                 : German
Service kind                             : Complete Main
Default                                  : Yes
Forced                                   : No
Original source medium                   : Blu-ray

Audio #2
ID                                       : 5
ID in the original source medium         : 4353 (0x1101)
Format                                   : E-AC-3
Format/Info                              : Enhanced AC-3
Commercial name                          : Dolby Digital Plus
Codec ID                                 : A_EAC3
Duration                                 : 23 min 44 s
Bit rate mode                            : Constant
Bit rate                                 : 640 kb/s
Channel(s)                               : 2 channels
Channel layout                           : L R
Sampling rate                            : 48.0 kHz
Frame rate                               : 31.250 FPS (1536 SPF)
Compression mode                         : Lossy
Stream size                              : 109 MiB (13%)
Title                                    : Stereo
Language                                 : Japanese
Service kind                             : Complete Main
Default                                  : No
Forced                                   : No
Original source medium                   : Blu-ray

Text #1
ID                                       : 2
ID in the original source medium         : 4608 (0x1200)
Format                                   : PGS
Muxing mode                              : zlib
Codec ID                                 : S_HDMV/PGS
Codec ID/Info                            : Picture based subtitle format used on BDs/HD-DVDs
Duration                                 : 23 min 35 s
Bit rate                                 : 4 185 b/s
Count of elements                        : 60
Stream size                              : 723 KiB (0%)
Title                                    : German Forced
Language                                 : German
Default                                  : Yes
Forced                                   : No
Original source medium                   : Blu-ray

Text #2
ID                                       : 3
ID in the original source medium         : 4609 (0x1201)
Format                                   : PGS
Muxing mode                              : zlib
Codec ID                                 : S_HDMV/PGS
Codec ID/Info                            : Picture based subtitle format used on BDs/HD-DVDs
Duration                                 : 23 min 35 s
Bit rate                                 : 71.6 kb/s
Count of elements                        : 670
Stream size                              : 12.1 MiB (1%)
Title                                    : German Full
Language                                 : German
Default                                  : No
Forced                                   : No
Original source medium                   : Blu-ray

Rich (BBCode):
Format                                   : Matroska
Format version                           : Version 4
File size                                : 2.41 GiB
Duration                                 : 23 min 44 s
Overall bit rate                         : 14.5 Mb/s
Encoded date                             : UTC 2020-11-23 16:04:24
Writing application                      : mkvmerge v51.0.0 ('I Wish') 64-bit
Writing library                          : libebml v1.4.0 + libmatroska v1.6.2

Video
ID                                       : 1
ID in the original source medium         : 4113 (0x1011)
Format                                   : AVC
Format/Info                              : Advanced Video Codec
Format profile                           : High@L5
Format settings                          : CABAC / 14 Ref Frames
Format settings, CABAC                   : Yes
Format settings, Reference frames        : 14 frames
Codec ID                                 : V_MPEG4/ISO/AVC
Duration                                 : 23 min 44 s
Bit rate                                 : 13.2 Mb/s
Width                                    : 1 920 pixels
Height                                   : 1 080 pixels
Display aspect ratio                     : 16:9
Frame rate mode                          : Constant
Frame rate                               : 23.976 (24000/1001) FPS
Color space                              : YUV
Chroma subsampling                       : 4:2:0
Bit depth                                : 8 bits
Scan type                                : Progressive
Bits/(Pixel*Frame)                       : 0.266
Stream size                              : 2.19 GiB (91%)
Writing library                          : x264 core 161
Language                                 : English
Default                                  : Yes
Forced                                   : No
Original source medium                   : Blu-ray

Audio #1
ID                                       : 4
ID in the original source medium         : 4352 (0x1100)
Format                                   : E-AC-3
Format/Info                              : Enhanced AC-3
Commercial name                          : Dolby Digital Plus
Codec ID                                 : A_EAC3
Duration                                 : 23 min 44 s
Bit rate mode                            : Constant
Bit rate                                 : 640 kb/s
Channel(s)                               : 2 channels
Channel layout                           : L R
Sampling rate                            : 48.0 kHz
Frame rate                               : 31.250 FPS (1536 SPF)
Compression mode                         : Lossy
Stream size                              : 109 MiB (4%)
Title                                    : Stereo
Language                                 : German
Service kind                             : Complete Main
Default                                  : Yes
Forced                                   : No
Original source medium                   : Blu-ray

Audio #2
ID                                       : 5
ID in the original source medium         : 4352 (0x1100)
Format                                   : E-AC-3
Format/Info                              : Enhanced AC-3
Commercial name                          : Dolby Digital Plus
Codec ID                                 : A_EAC3
Duration                                 : 23 min 44 s
Bit rate mode                            : Constant
Bit rate                                 : 640 kb/s
Channel(s)                               : 2 channels
Channel layout                           : L R
Sampling rate                            : 48.0 kHz
Frame rate                               : 31.250 FPS (1536 SPF)
Compression mode                         : Lossy
Stream size                              : 109 MiB (4%)
Title                                    : Stereo
Language                                 : German
Service kind                             : Complete Main
Default                                  : No
Forced                                   : No
Original source medium                   : Blu-ray

Text #1
ID                                       : 2
ID in the original source medium         : 4608 (0x1200)
Format                                   : PGS
Muxing mode                              : zlib
Codec ID                                 : S_HDMV/PGS
Codec ID/Info                            : Picture based subtitle format used on BDs/HD-DVDs
Duration                                 : 23 min 35 s
Bit rate                                 : 4 185 b/s
Count of elements                        : 60
Stream size                              : 723 KiB (0%)
Title                                    : German Forced
Language                                 : German
Default                                  : Yes
Forced                                   : No
Original source medium                   : Blu-ray

Text #2
ID                                       : 3
ID in the original source medium         : 4609 (0x1201)
Format                                   : PGS
Muxing mode                              : zlib
Codec ID                                 : S_HDMV/PGS
Codec ID/Info                            : Picture based subtitle format used on BDs/HD-DVDs
Duration                                 : 23 min 35 s
Bit rate                                 : 71.6 kb/s
Count of elements                        : 670
Stream size                              : 12.1 MiB (0%)
Title                                    : German Full
Language                                 : German
Default                                  : No
Forced                                   : No
Original source medium                   : Blu-ray

Rich (BBCode):
Format                                   : Matroska
Format version                           : Version 4
File size                                : 2.80 GiB
Duration                                 : 23 min 44 s
Overall bit rate mode                    : Variable
Overall bit rate                         : 16.9 Mb/s
Encoded date                             : UTC 2020-11-23 13:16:38
Writing application                      : mkvmerge v51.0.0 ('I Wish') 64-bit
Writing library                          : libebml v1.4.0 + libmatroska v1.6.2

Video
ID                                       : 1
ID in the original source medium         : 4113 (0x1011)
Format                                   : AVC
Format/Info                              : Advanced Video Codec
Format profile                           : High@L5
Format settings                          : CABAC / 14 Ref Frames
Format settings, CABAC                   : Yes
Format settings, Reference frames        : 14 frames
Codec ID                                 : V_MPEG4/ISO/AVC
Duration                                 : 23 min 44 s
Bit rate                                 : 13.2 Mb/s
Width                                    : 1 920 pixels
Height                                   : 1 080 pixels
Display aspect ratio                     : 16:9
Frame rate mode                          : Constant
Frame rate                               : 23.976 (24000/1001) FPS
Color space                              : YUV
Chroma subsampling                       : 4:2:0
Bit depth                                : 8 bits
Scan type                                : Progressive
Bits/(Pixel*Frame)                       : 0.266
Stream size                              : 2.19 GiB (78%)
Writing library                          : x264 core 161
Language                                 : English
Default                                  : Yes
Forced                                   : No
Original source medium                   : Blu-ray

Audio #1
ID                                       : 4
ID in the original source medium         : 4352 (0x1100)
Format                                   : DTS XLL
Format/Info                              : Digital Theater Systems
Commercial name                          : DTS-HD Master Audio
Codec ID                                 : A_DTS
Duration                                 : 23 min 44 s
Bit rate mode                            : Variable
Bit rate                                 : 1 813 kb/s
Channel(s)                               : 2 channels
Channel layout                           : L R
Sampling rate                            : 48.0 kHz
Frame rate                               : 93.750 FPS (512 SPF)
Bit depth                                : 24 bits
Compression mode                         : Lossless
Stream size                              : 308 MiB (11%)
Title                                    : Stereo
Language                                 : German
Default                                  : Yes
Forced                                   : No
Original source medium                   : Blu-ray

Audio #2
ID                                       : 5
ID in the original source medium         : 4353 (0x1101)
Format                                   : DTS XLL
Format/Info                              : Digital Theater Systems
Commercial name                          : DTS-HD Master Audio
Codec ID                                 : A_DTS
Duration                                 : 23 min 44 s
Bit rate mode                            : Variable
Bit rate                                 : 1 795 kb/s
Channel(s)                               : 2 channels
Channel layout                           : L R
Sampling rate                            : 48.0 kHz
Frame rate                               : 93.750 FPS (512 SPF)
Bit depth                                : 24 bits
Compression mode                         : Lossless
Stream size                              : 305 MiB (11%)
Title                                    : Stereo
Language                                 : Japanese
Default                                  : No
Forced                                   : No
Original source medium                   : Blu-ray

Text #1
ID                                       : 2
ID in the original source medium         : 4608 (0x1200)
Format                                   : PGS
Muxing mode                              : zlib
Codec ID                                 : S_HDMV/PGS
Codec ID/Info                            : Picture based subtitle format used on BDs/HD-DVDs
Duration                                 : 23 min 35 s
Bit rate                                 : 4 185 b/s
Count of elements                        : 60
Stream size                              : 723 KiB (0%)
Title                                    : German Forced
Language                                 : German
Default                                  : Yes
Forced                                   : No
Original source medium                   : Blu-ray

Text #2
ID                                       : 3
ID in the original source medium         : 4609 (0x1201)
Format                                   : PGS
Muxing mode                              : zlib
Codec ID                                 : S_HDMV/PGS
Codec ID/Info                            : Picture based subtitle format used on BDs/HD-DVDs
Duration                                 : 23 min 35 s
Bit rate                                 : 71.6 kb/s
Count of elements                        : 670
Stream size                              : 12.1 MiB (0%)
Title                                    : German Full
Language                                 : German
Default                                  : No
Forced                                   : No
Original source medium                   : Blu-ray





oie_bchbujbgr3vm3-png.30598

cooltext396117611400625-png.30739

720p EAC3
7F088C325B.png

1080p EAC3
2150DAA005.png

1080p DTS-HD
C5530BAE89.png


cooltext3961176114006251-png.30741

720p EAC3
08BC580BD4.png

1080p EAC3
8C520900B9.png

1080p DTS-HD
E3524CE517.png


To view the content, you need to Sign In or Register.

 
Zuletzt bearbeitet: