Welcome to our Community
Wanting to join the rest of our members? Feel free to sign up today.
Sign up

Das Schloss im Himmel | Tenkuu no Shiro Laputa [Ger-Jap-Dub][Ger-Sub][720p|1080p][E-AC-3|DTS-HD][8bits|10bits][x264|x265|AV1][BluRay] - AO

Kleinmike

Uploader
Otaku König
21 März 2021
285
4.735
93


Das Schloss im Himmel | Tenkuu no Shiro Laputa



2767_300.webp



oie_bchbujbgr3vm-png.30595
anisearch.com schrieb:
Wenn es eine fliegende Stadt gibt, dann fragt man sich natürlich, was sie am Himmel hält. Herr Miyazaki hat in seinem Anime folgende Antwort gegeben: Einst existierte eine technologisch ungeheuer fortgeschrittene Zivilisation, die unter anderem in der Lage war, aus bestimmten Mineralien blau leuchtende Kristalle zu gewinnen, die die Schwerkraft aufheben können und deshalb Levitationssteine genannt werden.

Die alte Zivilisation ist längst erloschen, nur noch wenige Legenden erinnern an sie, Märchen im Grunde, an die keiner glaubt oder jedenfalls fast keiner. Doch ein paar Menschen gibt es noch, die aus unterschiedlichen Gründen davon überzeugt sind, dass Laputa, die Stadt im Himmel, tatsächlich existiert hat und immer noch existiert. Einer davon ist der Junge Pazu, der eines Nachts bei der Arbeit im Kohlekraftwerk das Mädchen Sheeta auffängt, das buchstäblich vom Himmel gefallen ist. Als sie merken, dass am nächsten Morgen sowohl Piraten als auch Agenten der Regierung hinter Sheeta her sind und dies wohlmöglich mit dem sonderbaren Stein zutun hat, den Sheeta um den Hals trägt, fliehen sie und machen sich gleichzeitig auf die Suche nach dem Schloss im Himmel …


Anmerkung:
Die Film beruht lose auf Jonathan Swifts Geschichte »Gullivers Reisen«, in der der Held Gulliver unter anderem auch in der fliegenden Stadt Laputa landet.
Quelle: https://www.anisearch.de/anime/2767



oie_bchbujbgr3vm1-png.30596


Spieldauer: ~2h 4min
Genre: Abenteuer
Nebengenres: Action, Drama, Fantasy, Komödie, Mecha, Scifi
Jahr: 2023
Sprache:
Deutsch.png
Deutsch,
Japanisch.png
Japanisch
Untertitel:
Deutsch.png
Deutsch
Größe: ~6.14GiB | ~18.6GiB | ~17.6GiB | ~8.60GiB
Format: MKV
Auflösung: 720p (16:9) | 1080p (16:9)
Videocodec: x264(AVC) | x265(HEVC) | AV1(AOM)
Audiocodec: DTS-HD | E-AC-3
Releasegruppe: Anime Otakus
Hoster:
rapidgator-gif.30742
Rapidgator,
ddownload-gif.30720
ddownload


oie_bchbujbgr3vm2-png.30597

Rich (BBCode):

Format                                   : Matroska
Format version                           : Version 4
File size                                : 6.14 GiB
Duration                                 : 2 h 4 min
Overall bit rate                         : 7 061 kb/s
Writing application                      : no_variable_data
Writing library                          : no_variable_data
Release by                               : Anime Otakus
Version                                  : 1.2

Video
ID                                       : 1
Format                                   : AVC
Format/Info                              : Advanced Video Codec
Format profile                           : [email protected]
Format settings                          : CABAC / 8 Ref Frames
Format settings, CABAC                   : Yes
Format settings, Reference frames        : 8 frames
Codec ID                                 : V_MPEG4/ISO/AVC
Duration                                 : 2 h 4 min
Bit rate                                 : 5 641 kb/s
Width                                    : 1 280 pixels
Height                                   : 720 pixels
Display aspect ratio                     : 16:9
Frame rate mode                          : Constant
Frame rate                               : 23.976 (24000/1001) FPS
Color space                              : YUV
Chroma subsampling                       : 4:2:0
Bit depth                                : 8 bits
Scan type                                : Progressive
Bits/(Pixel*Frame)                       : 0.255
Stream size                              : 4.91 GiB (80%)
Language                                 : English
Default                                  : No
Forced                                   : No
Color range                              : Limited
Color primaries                          : BT.709
Transfer characteristics                 : BT.709
Matrix coefficients                      : BT.709

Audio #1
ID                                       : 4
Format                                   : E-AC-3
Format/Info                              : Enhanced AC-3
Commercial name                          : Dolby Digital Plus
Codec ID                                 : A_EAC3
Duration                                 : 2 h 4 min
Bit rate mode                            : Constant
Bit rate                                 : 640 kb/s
Channel(s)                               : 2 channels
Channel layout                           : L R
Sampling rate                            : 48.0 kHz
Frame rate                               : 31.250 FPS (1536 SPF)
Bit depth                                : 32 bits
Compression mode                         : Lossy
Delay relative to video                  : -5 ms
Stream size                              : 570 MiB (9%)
Title                                    : Stereo
Language                                 : German
Service kind                             : Complete Main
Default                                  : Yes
Forced                                   : No

Audio #2
ID                                       : 5
Format                                   : E-AC-3
Format/Info                              : Enhanced AC-3
Commercial name                          : Dolby Digital Plus
Codec ID                                 : A_EAC3
Duration                                 : 2 h 4 min
Bit rate mode                            : Constant
Bit rate                                 : 640 kb/s
Channel(s)                               : 2 channels
Channel layout                           : L R
Sampling rate                            : 48.0 kHz
Frame rate                               : 31.250 FPS (1536 SPF)
Bit depth                                : 32 bits
Compression mode                         : Lossy
Delay relative to video                  : -5 ms
Stream size                              : 570 MiB (9%)
Title                                    : Stereo
Language                                 : Japanese
Service kind                             : Complete Main
Default                                  : No
Forced                                   : No

Text #1
ID                                       : 2
Format                                   : PGS
Muxing mode                              : zlib
Codec ID                                 : S_HDMV/PGS
Codec ID/Info                            : Picture based subtitle format used on BDs/HD-DVDs
Title                                    : German Full
Language                                 : German
Default                                  : Yes
Forced                                   : No

Text #2
ID                                       : 3
Format                                   : PGS
Muxing mode                              : zlib
Codec ID                                 : S_HDMV/PGS
Codec ID/Info                            : Picture based subtitle format used on BDs/HD-DVDs
Title                                    : German Forced
Language                                 : German
Default                                  : No
Forced                                   : No

Menu
00:00:00.000                             : :Chapter 01
00:10:11.611                             : :Chapter 02
00:21:11.687                             : :Chapter 03
00:30:57.605                             : :Chapter 04
00:38:10.621                             : :Chapter 05
00:49:03.482                             : :Chapter 06
00:59:18.930                             : :Chapter 07
01:06:17.348                             : :Chapter 08
01:16:49.688                             : :Chapter 09
01:24:01.244                             : :Chapter 10
01:34:04.096                             : :Chapter 11
01:44:00.943                             : :Chapter 12
01:52:15.812                             : :Chapter 13
01:57:58.196                             : :Chapter 14
Rich (BBCode):

Format                                   : Matroska
Format version                           : Version 4
File size                                : 18.6 GiB
Duration                                 : 2 h 4 min
Overall bit rate mode                    : Variable
Overall bit rate                         : 21.4 Mb/s
Writing application                      : no_variable_data
Writing library                          : no_variable_data
Release by                               : Anime Otakus
Version                                  : 1.2

Video
ID                                       : 1
Format                                   : AVC
Format/Info                              : Advanced Video Codec
Format profile                           : [email protected]
Format settings                          : CABAC / 12 Ref Frames
Format settings, CABAC                   : Yes
Format settings, Reference frames        : 12 frames
Codec ID                                 : V_MPEG4/ISO/AVC
Duration                                 : 2 h 4 min
Bit rate                                 : 19.4 Mb/s
Width                                    : 1 920 pixels
Height                                   : 1 080 pixels
Display aspect ratio                     : 16:9
Frame rate mode                          : Constant
Frame rate                               : 23.976 (24000/1001) FPS
Color space                              : YUV
Chroma subsampling                       : 4:2:0
Bit depth                                : 8 bits
Scan type                                : Progressive
Bits/(Pixel*Frame)                       : 0.390
Stream size                              : 16.9 GiB (91%)
Language                                 : English
Default                                  : No
Forced                                   : No
Color range                              : Limited
Color primaries                          : BT.709
Transfer characteristics                 : BT.709
Matrix coefficients                      : BT.709

Audio #1
ID                                       : 4
Format                                   : DTS XLL
Format/Info                              : Digital Theater Systems
Commercial name                          : DTS-HD Master Audio
Codec ID                                 : A_DTS
Duration                                 : 2 h 4 min
Bit rate mode                            : Variable
Bit rate                                 : 1 009 kb/s
Channel(s)                               : 2 channels
Channel layout                           : L R
Sampling rate                            : 48.0 kHz
Frame rate                               : 93.750 FPS (512 SPF)
Bit depth                                : 16 bits
Compression mode                         : Lossless
Stream size                              : 899 MiB (5%)
Title                                    : Stereo
Language                                 : German
Default                                  : Yes
Forced                                   : No

Audio #2
ID                                       : 5
Format                                   : DTS XLL
Format/Info                              : Digital Theater Systems
Commercial name                          : DTS-HD Master Audio
Codec ID                                 : A_DTS
Duration                                 : 2 h 4 min
Bit rate mode                            : Variable
Bit rate                                 : 978 kb/s
Channel(s)                               : 2 channels
Channel layout                           : L R
Sampling rate                            : 48.0 kHz
Frame rate                               : 93.750 FPS (512 SPF)
Bit depth                                : 16 bits
Compression mode                         : Lossless
Stream size                              : 871 MiB (5%)
Title                                    : Stereo
Language                                 : Japanese
Default                                  : No
Forced                                   : No

Text #1
ID                                       : 2
Format                                   : PGS
Muxing mode                              : zlib
Codec ID                                 : S_HDMV/PGS
Codec ID/Info                            : Picture based subtitle format used on BDs/HD-DVDs
Duration                                 : 1 h 59 min
Bit rate                                 : 22.2 kb/s
Count of elements                        : 1752
Stream size                              : 19.0 MiB (0%)
Title                                    : German Full
Language                                 : German
Default                                  : Yes
Forced                                   : No

Text #2
ID                                       : 3
Format                                   : PGS
Muxing mode                              : zlib
Codec ID                                 : S_HDMV/PGS
Codec ID/Info                            : Picture based subtitle format used on BDs/HD-DVDs
Duration                                 : 8 s 404 ms
Bit rate                                 : 15.0 kb/s
Count of elements                        : 2
Stream size                              : 15.4 KiB (0%)
Title                                    : German Forced
Language                                 : German
Default                                  : No
Forced                                   : No

Menu
00:00:00.000                             : :Chapter 01
00:10:11.611                             : :Chapter 02
00:21:11.687                             : :Chapter 03
00:30:57.605                             : :Chapter 04
00:38:10.621                             : :Chapter 05
00:49:03.482                             : :Chapter 06
00:59:18.930                             : :Chapter 07
01:06:17.348                             : :Chapter 08
01:16:49.688                             : :Chapter 09
01:24:01.244                             : :Chapter 10
01:34:04.096                             : :Chapter 11
01:44:00.943                             : :Chapter 12
01:52:15.812                             : :Chapter 13
01:57:58.196                             : :Chapter 14
Rich (BBCode):

Format                                   : Matroska
Format version                           : Version 4
File size                                : 17.6 GiB
Duration                                 : 2 h 4 min
Overall bit rate mode                    : Variable
Overall bit rate                         : 20.2 Mb/s
Writing application                      : no_variable_data
Writing library                          : no_variable_data
Release by                               : Anime Otakus
Version                                  : 1.2

Video
ID                                       : 1
Format                                   : HEVC
Format/Info                              : High Efficiency Video Coding
Format profile                           : Main [email protected]@Main
Codec ID                                 : V_MPEGH/ISO/HEVC
Duration                                 : 2 h 4 min
Width                                    : 1 920 pixels
Height                                   : 1 080 pixels
Display aspect ratio                     : 16:9
Frame rate mode                          : Constant
Frame rate                               : 23.976 (24000/1001) FPS
Color space                              : YUV
Chroma subsampling                       : 4:2:0 (Type 0)
Bit depth                                : 10 bits
Language                                 : English
Default                                  : No
Forced                                   : No
Color range                              : Limited
Color primaries                          : BT.709
Transfer characteristics                 : BT.709
Matrix coefficients                      : BT.709

Audio #1
ID                                       : 4
Format                                   : DTS XLL
Format/Info                              : Digital Theater Systems
Commercial name                          : DTS-HD Master Audio
Codec ID                                 : A_DTS
Duration                                 : 2 h 4 min
Bit rate mode                            : Variable
Channel(s)                               : 2 channels
Channel layout                           : L R
Sampling rate                            : 48.0 kHz
Frame rate                               : 93.750 FPS (512 SPF)
Bit depth                                : 16 bits
Compression mode                         : Lossless
Title                                    : Stereo
Language                                 : German
Default                                  : Yes
Forced                                   : No

Audio #2
ID                                       : 5
Format                                   : DTS XLL
Format/Info                              : Digital Theater Systems
Commercial name                          : DTS-HD Master Audio
Codec ID                                 : A_DTS
Duration                                 : 2 h 4 min
Bit rate mode                            : Variable
Channel(s)                               : 2 channels
Channel layout                           : L R
Sampling rate                            : 48.0 kHz
Frame rate                               : 93.750 FPS (512 SPF)
Bit depth                                : 16 bits
Compression mode                         : Lossless
Title                                    : Stereo
Language                                 : Japanese
Default                                  : No
Forced                                   : No

Text #1
ID                                       : 2
Format                                   : PGS
Muxing mode                              : zlib
Codec ID                                 : S_HDMV/PGS
Codec ID/Info                            : Picture based subtitle format used on BDs/HD-DVDs
Title                                    : German Full
Language                                 : German
Default                                  : Yes
Forced                                   : No

Text #2
ID                                       : 3
Format                                   : PGS
Muxing mode                              : zlib
Codec ID                                 : S_HDMV/PGS
Codec ID/Info                            : Picture based subtitle format used on BDs/HD-DVDs
Title                                    : German Forced
Language                                 : German
Default                                  : No
Forced                                   : No

Menu
00:00:00.000                             : :Chapter 01
00:10:11.611                             : :Chapter 02
00:21:11.687                             : :Chapter 03
00:30:57.605                             : :Chapter 04
00:38:10.621                             : :Chapter 05
00:49:03.482                             : :Chapter 06
00:59:18.930                             : :Chapter 07
01:06:17.348                             : :Chapter 08
01:16:49.688                             : :Chapter 09
01:24:01.244                             : :Chapter 10
01:34:04.096                             : :Chapter 11
01:44:00.943                             : :Chapter 12
01:52:15.812                             : :Chapter 13
01:57:58.196                             : :Chapter 14
Rich (BBCode):

Format                                   : Matroska
Format version                           : Version 4
File size                                : 8.60 GiB
Duration                                 : 2 h 4 min
Overall bit rate mode                    : Variable
Overall bit rate                         : 9 878 kb/s
Writing application                      : no_variable_data
Writing library                          : no_variable_data
Release by                               : Anime Otakus
Version                                  : 1.3

Video
ID                                       : 1
Format                                   : AV1
Format/Info                              : AOMedia Video 1
Format profile                           : [email protected]
Codec ID                                 : V_AV1
Duration                                 : 2 h 4 min
Bit rate                                 : 7 877 kb/s
Width                                    : 1 920 pixels
Height                                   : 1 080 pixels
Display aspect ratio                     : 16:9
Frame rate mode                          : Constant
Frame rate                               : 23.976 (24000/1001) FPS
Color space                              : YUV
Chroma subsampling                       : 4:2:0
Bit depth                                : 10 bits
Bits/(Pixel*Frame)                       : 0.158
Stream size                              : 6.85 GiB (80%)
Default                                  : No
Forced                                   : No
Color range                              : Limited
Color primaries                          : BT.709
Transfer characteristics                 : BT.709
Matrix coefficients                      : BT.709

Audio #1
ID                                       : 4
Format                                   : DTS XLL
Format/Info                              : Digital Theater Systems
Commercial name                          : DTS-HD Master Audio
Codec ID                                 : A_DTS
Duration                                 : 2 h 4 min
Bit rate mode                            : Variable
Bit rate                                 : 1 009 kb/s
Channel(s)                               : 2 channels
Channel layout                           : L R
Sampling rate                            : 48.0 kHz
Frame rate                               : 93.750 FPS (512 SPF)
Bit depth                                : 16 bits
Compression mode                         : Lossless
Stream size                              : 899 MiB (10%)
Title                                    : Stereo
Language                                 : German
Default                                  : Yes
Forced                                   : No

Audio #2
ID                                       : 5
Format                                   : DTS XLL
Format/Info                              : Digital Theater Systems
Commercial name                          : DTS-HD Master Audio
Codec ID                                 : A_DTS
Duration                                 : 2 h 4 min
Bit rate mode                            : Variable
Bit rate                                 : 978 kb/s
Channel(s)                               : 2 channels
Channel layout                           : L R
Sampling rate                            : 48.0 kHz
Frame rate                               : 93.750 FPS (512 SPF)
Bit depth                                : 16 bits
Compression mode                         : Lossless
Stream size                              : 871 MiB (10%)
Title                                    : Stereo
Language                                 : Japanese
Default                                  : No
Forced                                   : No

Text #1
ID                                       : 2
Format                                   : PGS
Muxing mode                              : zlib
Codec ID                                 : S_HDMV/PGS
Codec ID/Info                            : Picture based subtitle format used on BDs/HD-DVDs
Duration                                 : 1 h 59 min
Bit rate                                 : 22.2 kb/s
Count of elements                        : 1752
Stream size                              : 19.0 MiB (0%)
Title                                    : German Full
Language                                 : German
Default                                  : Yes
Forced                                   : No

Text #2
ID                                       : 3
Format                                   : PGS
Muxing mode                              : zlib
Codec ID                                 : S_HDMV/PGS
Codec ID/Info                            : Picture based subtitle format used on BDs/HD-DVDs
Duration                                 : 8 s 404 ms
Bit rate                                 : 15.0 kb/s
Count of elements                        : 2
Stream size                              : 15.4 KiB (0%)
Title                                    : German Forced
Language                                 : German
Default                                  : No
Forced                                   : No

Menu
00:00:00.000                             : :Chapter 01
00:10:11.611                             : :Chapter 02
00:21:11.687                             : :Chapter 03
00:30:57.605                             : :Chapter 04
00:38:10.621                             : :Chapter 05
00:49:03.482                             : :Chapter 06
00:59:18.930                             : :Chapter 07
01:06:17.348                             : :Chapter 08
01:16:49.688                             : :Chapter 09
01:24:01.244                             : :Chapter 10
01:34:04.096                             : :Chapter 11
01:44:00.943                             : :Chapter 12
01:52:15.812                             : :Chapter 13
01:57:58.196                             : :Chapter 14



oie_bchbujbgr3vm3-png.30598

cooltext396117611400625-png.30739

djclne9-png.30614
855369B37D.png

zt2lbs3-png.30611
4B1C13AE33.png

cfa5dsl-png.30616
dm5wkw6-png.30611
F04675D3AA.png

cfa5dsl1-png.30874
dm5wkw6-png.30611
9FAB746E0E.png


cooltext3961176114006251-png.30741

djclne9-png.30614
8672E69D25.png

zt2lbs3-png.30611
E4E6C623BB.png

cfa5dsl-png.30616
dm5wkw6-png.30611
75BEA15A0F.png

cfa5dsl1-png.30874
dm5wkw6-png.30611
936F1B5477.png


To view the content, you need to Sign In or Register.

 
Zuletzt bearbeitet: