Welcome to our Community
Wanting to join the rest of our members? Feel free to sign up today.
Sign up

Das wandelnde Schloss | Howl no Ugoku Shiro [Ger-Jap-Dub][Ger-Sub][720p|1080p][E-AC-3|DTS-HD][x264|x265|AV1][BluRay] - AO

Kleinmike

Uploader
Otaku König
21 März 2021
284
4.716
93


Das wandelnde Schloss | Howl no Ugoku Shiro



156_300.webp



oie_bchbujbgr3vm-png.30595
anisearch.com schrieb:
Die junge Frau Sophie wird von der Hexe des Niemandslandes, die auf Sophie eifersüchtig ist, mit einem Fluch belegt, der sie in eine alte Frau verwandelt. Beschämt und erschüttert, dass sie nicht weiter im Hutladen ihrer Mutter arbeiten kann, beschließt sie fortzugehen. Sie trifft nach einiger Zeit auf das wandelnde Schloss und den Hexer Hauro. Sophie freundet sich mit Calcifer, einem Feuerdämon, der das Schloss mit seiner Energie antreibt und durch einen Vertrag an Hauro gebunden ist, an. Er erkennt den Fluch, mit dem sie belegt wurde und verspricht ihr, sie davon zu befreien, wenn sie herausfindet, was das Geheimnis ist, das ihn an Hauro bindet. Derweil verliebt sich Hauro, der den Fluch ebenfalls erkennen kann, in Sophie.
Quelle: https://www.anisearch.de/anime/156,howl-no-ugoku-shiro



oie_bchbujbgr3vm1-png.30596


Spieldauer: ~1h 59min
Genre: Abenteuer
Nebengenres: Drama, Fantasy, Komödie, Romanze
Jahr: 2004
Sprache:
Deutsch.png
Deutsch,
Japanisch.png
Japanisch
Untertitel:
Deutsch.png
Deutsch
Größe: ~4.32GiB | ~13.4GiB | ~ 12.6GiB | ~11.0 GiB
Format: MKV
Auflösung: 720p (16:9) | 1080p (16:9)
Videocodec: x264 (AVC) | x265(HVEC) | AV1(AOM)
Audiocodec: DTS-HD | E-AC-3
Releasegruppe: Anime Otakus
Hoster:
rapidgator-gif.30742
Rapidgator,
ddownload-gif.30720
ddownload


oie_bchbujbgr3vm2-png.30597

Rich (BBCode):

Format                                   : Matroska
Format version                           : Version 4
File size                                : 4.32 GiB
Duration                                 : 1 h 59 min
Overall bit rate                         : 5 194 kb/s
Writing application                      : no_variable_data
Writing library                          : no_variable_data
Release by                               : Anime Otakus
Version                                  : 1.2

Video
ID                                       : 1
Format                                   : AVC
Format/Info                              : Advanced Video Codec
Format profile                           : [email protected]
Format settings                          : CABAC / 8 Ref Frames
Format settings, CABAC                   : Yes
Format settings, Reference frames        : 8 frames
Codec ID                                 : V_MPEG4/ISO/AVC
Duration                                 : 1 h 59 min
Bit rate                                 : 3 810 kb/s
Width                                    : 1 280 pixels
Height                                   : 720 pixels
Display aspect ratio                     : 16:9
Frame rate mode                          : Constant
Frame rate                               : 23.976 (24000/1001) FPS
Color space                              : YUV
Chroma subsampling                       : 4:2:0
Bit depth                                : 8 bits
Scan type                                : Progressive
Bits/(Pixel*Frame)                       : 0.172
Stream size                              : 3.17 GiB (73%)
Language                                 : English
Default                                  : No
Forced                                   : No
Color range                              : Limited
Color primaries                          : BT.709
Transfer characteristics                 : BT.709
Matrix coefficients                      : BT.709

Audio #1
ID                                       : 3
Format                                   : E-AC-3
Format/Info                              : Enhanced AC-3
Commercial name                          : Dolby Digital Plus
Codec ID                                 : A_EAC3
Duration                                 : 1 h 59 min
Bit rate mode                            : Constant
Bit rate                                 : 640 kb/s
Channel(s)                               : 5 channels
Channel layout                           : L R C Ls Rs
Sampling rate                            : 48.0 kHz
Frame rate                               : 31.250 FPS (1536 SPF)
Bit depth                                : 32 bits
Compression mode                         : Lossy
Delay relative to video                  : -5 ms
Stream size                              : 546 MiB (12%)
Title                                    : Surround 6.1
Language                                 : German
Service kind                             : Complete Main
Default                                  : Yes
Forced                                   : No

Audio #2
ID                                       : 4
Format                                   : E-AC-3
Format/Info                              : Enhanced AC-3
Commercial name                          : Dolby Digital Plus
Codec ID                                 : A_EAC3
Duration                                 : 1 h 59 min
Bit rate mode                            : Constant
Bit rate                                 : 640 kb/s
Channel(s)                               : 5 channels
Channel layout                           : L R C Ls Rs
Sampling rate                            : 48.0 kHz
Frame rate                               : 31.250 FPS (1536 SPF)
Bit depth                                : 32 bits
Compression mode                         : Lossy
Delay relative to video                  : -5 ms
Stream size                              : 546 MiB (12%)
Title                                    : Surround 6.1
Language                                 : Japanese
Service kind                             : Complete Main
Default                                  : No
Forced                                   : No

Text
ID                                       : 2
Format                                   : PGS
Muxing mode                              : zlib
Codec ID                                 : S_HDMV/PGS
Codec ID/Info                            : Picture based subtitle format used on BDs/HD-DVDs
Title                                    : German Full
Language                                 : German
Default                                  : No
Forced                                   : No

Menu
00:00:00.000                             : :Chapter 01
00:09:02.291                             : :Chapter 02
00:19:43.557                             : :Chapter 03
00:28:52.939                             : :Chapter 04
00:38:10.579                             : :Chapter 05
00:47:32.474                             : :Chapter 06
00:53:33.960                             : :Chapter 07
01:03:39.941                             : :Chapter 08
01:14:18.745                             : :Chapter 09
01:25:17.987                             : :Chapter 10
01:34:30.748                             : :Chapter 11
01:44:23.757                             : :Chapter 12
Rich (BBCode):

Format                                   : Matroska
Format version                           : Version 4
File size                                : 13.4 GiB
Duration                                 : 1 h 59 min
Overall bit rate mode                    : Variable
Overall bit rate                         : 16.1 Mb/s
Writing application                      : no_variable_data
Writing library                          : no_variable_data
Release by                               : Anime Otakus
Version                                  : 1.2

Video
ID                                       : 1
Format                                   : AVC
Format/Info                              : Advanced Video Codec
Format profile                           : [email protected]
Format settings                          : CABAC / 12 Ref Frames
Format settings, CABAC                   : Yes
Format settings, Reference frames        : 12 frames
Codec ID                                 : V_MPEG4/ISO/AVC
Duration                                 : 1 h 59 min
Bit rate                                 : 10.9 Mb/s
Width                                    : 1 920 pixels
Height                                   : 1 080 pixels
Display aspect ratio                     : 16:9
Frame rate mode                          : Constant
Frame rate                               : 23.976 (24000/1001) FPS
Color space                              : YUV
Chroma subsampling                       : 4:2:0
Bit depth                                : 8 bits
Scan type                                : Progressive
Bits/(Pixel*Frame)                       : 0.220
Stream size                              : 9.11 GiB (68%)
Language                                 : English
Default                                  : No
Forced                                   : No
Color range                              : Limited
Color primaries                          : BT.709
Transfer characteristics                 : BT.709
Matrix coefficients                      : BT.709

Audio #1
ID                                       : 3
Format                                   : DTS ES XXCH XLL
Format/Info                              : Digital Theater Systems
Commercial name                          : DTS-HD Master Audio
Codec ID                                 : A_DTS
Duration                                 : 1 h 59 min
Bit rate mode                            : Variable
Bit rate                                 : 2 488 kb/s
Channel(s)                               : 7 channels
Channel layout                           : C L R Ls Rs LFE Cb
Sampling rate                            : 48.0 kHz
Frame rate                               : 93.750 FPS (512 SPF)
Bit depth                                : 16 bits
Compression mode                         : Lossless
Stream size                              : 2.07 GiB (15%)
Title                                    : Surround 6.1
Language                                 : German
Default                                  : Yes
Forced                                   : No

Audio #2
ID                                       : 4
Format                                   : DTS ES XXCH XLL
Format/Info                              : Digital Theater Systems
Commercial name                          : DTS-HD Master Audio
Codec ID                                 : A_DTS
Duration                                 : 1 h 59 min
Bit rate mode                            : Variable
Bit rate                                 : 2 695 kb/s
Channel(s)                               : 7 channels
Channel layout                           : C L R Ls Rs LFE Cb
Sampling rate                            : 48.0 kHz
Frame rate                               : 93.750 FPS (512 SPF)
Bit depth                                : 16 bits
Compression mode                         : Lossless
Stream size                              : 2.24 GiB (17%)
Title                                    : Surround 6.1
Language                                 : Japanese
Default                                  : No
Forced                                   : No

Text
ID                                       : 2
Format                                   : PGS
Muxing mode                              : zlib
Codec ID                                 : S_HDMV/PGS
Codec ID/Info                            : Picture based subtitle format used on BDs/HD-DVDs
Duration                                 : 1 h 54 min
Bit rate                                 : 23.4 kb/s
Count of elements                        : 2063
Stream size                              : 19.2 MiB (0%)
Title                                    : German Full
Language                                 : German
Default                                  : No
Forced                                   : No

Menu
00:00:00.000                             : :Chapter 01
00:09:02.291                             : :Chapter 02
00:19:43.557                             : :Chapter 03
00:28:52.939                             : :Chapter 04
00:38:10.579                             : :Chapter 05
00:47:32.474                             : :Chapter 06
00:53:33.960                             : :Chapter 07
01:03:39.941                             : :Chapter 08
01:14:18.745                             : :Chapter 09
01:25:17.987                             : :Chapter 10
01:34:30.748                             : :Chapter 11
01:44:23.757                             : :Chapter 12
Rich (BBCode):

Format                                   : Matroska
Format version                           : Version 4
File size                                : 12.6 GiB
Duration                                 : 1 h 59 min
Overall bit rate mode                    : Variable
Overall bit rate                         : 15.1 Mb/s
Writing application                      : no_variable_data
Writing library                          : no_variable_data
Release by                               : Anime Otakus
Version                                  : 1.2

Video
ID                                       : 1
Format                                   : HEVC
Format/Info                              : High Efficiency Video Coding
Format profile                           : Main [email protected]@Main
Codec ID                                 : V_MPEGH/ISO/HEVC
Duration                                 : 1 h 59 min
Width                                    : 1 920 pixels
Height                                   : 1 080 pixels
Display aspect ratio                     : 16:9
Frame rate mode                          : Constant
Frame rate                               : 23.976 (24000/1001) FPS
Color space                              : YUV
Chroma subsampling                       : 4:2:0 (Type 0)
Bit depth                                : 10 bits
Language                                 : English
Default                                  : No
Forced                                   : No
Color range                              : Limited
Color primaries                          : BT.709
Transfer characteristics                 : BT.709
Matrix coefficients                      : BT.709

Audio #1
ID                                       : 3
Format                                   : DTS ES XXCH XLL
Format/Info                              : Digital Theater Systems
Commercial name                          : DTS-HD Master Audio
Codec ID                                 : A_DTS
Duration                                 : 1 h 59 min
Bit rate mode                            : Variable
Channel(s)                               : 7 channels
Channel layout                           : C L R Ls Rs LFE Cb
Sampling rate                            : 48.0 kHz
Frame rate                               : 93.750 FPS (512 SPF)
Bit depth                                : 16 bits
Compression mode                         : Lossless
Title                                    : Surround 6.1
Language                                 : German
Default                                  : Yes
Forced                                   : No

Audio #2
ID                                       : 4
Format                                   : DTS ES XXCH XLL
Format/Info                              : Digital Theater Systems
Commercial name                          : DTS-HD Master Audio
Codec ID                                 : A_DTS
Duration                                 : 1 h 59 min
Bit rate mode                            : Variable
Channel(s)                               : 7 channels
Channel layout                           : C L R Ls Rs LFE Cb
Sampling rate                            : 48.0 kHz
Frame rate                               : 93.750 FPS (512 SPF)
Bit depth                                : 16 bits
Compression mode                         : Lossless
Title                                    : Surround 6.1
Language                                 : Japanese
Default                                  : No
Forced                                   : No

Text
ID                                       : 2
Format                                   : PGS
Muxing mode                              : zlib
Codec ID                                 : S_HDMV/PGS
Codec ID/Info                            : Picture based subtitle format used on BDs/HD-DVDs
Title                                    : German Full
Language                                 : German
Default                                  : No
Forced                                   : No

Menu
00:00:00.000                             : :Chapter 01
00:09:02.291                             : :Chapter 02
00:19:43.557                             : :Chapter 03
00:28:52.939                             : :Chapter 04
00:38:10.579                             : :Chapter 05
00:47:32.474                             : :Chapter 06
00:53:33.960                             : :Chapter 07
01:03:39.941                             : :Chapter 08
01:14:18.745                             : :Chapter 09
01:25:17.987                             : :Chapter 10
01:34:30.748                             : :Chapter 11
01:44:23.757                             : :Chapter 12
Rich (BBCode):

Format                                   : Matroska
Format version                           : Version 4
File size                                : 11.0 GiB
Duration                                 : 1 h 59 min
Overall bit rate mode                    : Variable
Overall bit rate                         : 13.3 Mb/s
Writing application                      : no_variable_data
Writing library                          : no_variable_data
Released by                              : Anime Otakus
Version                                  : 1.3

Video
ID                                       : 1
Format                                   : AV1
Format/Info                              : AOMedia Video 1
Format profile                           : [email protected]
Codec ID                                 : V_AV1
Duration                                 : 1 h 59 min
Bit rate                                 : 8 057 kb/s
Width                                    : 1 920 pixels
Height                                   : 1 080 pixels
Display aspect ratio                     : 16:9
Frame rate mode                          : Constant
Frame rate                               : 23.976 (24000/1001) FPS
Color space                              : YUV
Chroma subsampling                       : 4:2:0
Bit depth                                : 10 bits
Bits/(Pixel*Frame)                       : 0.162
Stream size                              : 6.71 GiB (61%)
Default                                  : No
Forced                                   : No
Color range                              : Limited
Color primaries                          : BT.709
Transfer characteristics                 : BT.709
Matrix coefficients                      : BT.709

Audio #1
ID                                       : 3
Format                                   : DTS ES XXCH XLL
Format/Info                              : Digital Theater Systems
Commercial name                          : DTS-HD Master Audio
Codec ID                                 : A_DTS
Duration                                 : 1 h 59 min
Bit rate mode                            : Variable
Bit rate                                 : 2 488 kb/s
Channel(s)                               : 7 channels
Channel layout                           : C L R Ls Rs LFE Cb
Sampling rate                            : 48.0 kHz
Frame rate                               : 93.750 FPS (512 SPF)
Bit depth                                : 16 bits
Compression mode                         : Lossless
Stream size                              : 2.07 GiB (19%)
Title                                    : Surround 6.1
Language                                 : German
Default                                  : Yes
Forced                                   : No

Audio #2
ID                                       : 4
Format                                   : DTS ES XXCH XLL
Format/Info                              : Digital Theater Systems
Commercial name                          : DTS-HD Master Audio
Codec ID                                 : A_DTS
Duration                                 : 1 h 59 min
Bit rate mode                            : Variable
Bit rate                                 : 2 695 kb/s
Channel(s)                               : 7 channels
Channel layout                           : C L R Ls Rs LFE Cb
Sampling rate                            : 48.0 kHz
Frame rate                               : 93.750 FPS (512 SPF)
Bit depth                                : 16 bits
Compression mode                         : Lossless
Stream size                              : 2.24 GiB (20%)
Title                                    : Surround 6.1
Language                                 : Japanese
Default                                  : No
Forced                                   : No

Text
ID                                       : 2
Format                                   : PGS
Muxing mode                              : zlib
Codec ID                                 : S_HDMV/PGS
Codec ID/Info                            : Picture based subtitle format used on BDs/HD-DVDs
Duration                                 : 1 h 54 min
Bit rate                                 : 23.4 kb/s
Count of elements                        : 2063
Stream size                              : 19.2 MiB (0%)
Language                                 : German
Default                                  : No
Forced                                   : No

Menu
00:00:00.000                             : :Chapter 01
00:09:02.291                             : :Chapter 02
00:19:43.557                             : :Chapter 03
00:28:52.939                             : :Chapter 04
00:38:10.579                             : :Chapter 05
00:47:32.474                             : :Chapter 06
00:53:33.960                             : :Chapter 07
01:03:39.941                             : :Chapter 08
01:14:18.745                             : :Chapter 09
01:25:17.987                             : :Chapter 10
01:34:30.748                             : :Chapter 11
01:44:23.757                             : :Chapter 12



oie_bchbujbgr3vm3-png.30598

cooltext396117611400625-png.30739

djclne9-png.30614
BAE4C2CC2F.png

zt2lbs3-png.30611
E636C3EBC2.png

cfa5dsl-png.30616
dm5wkw6-png.30611
294622D145.png

cfa5dsl1-png.30874
dm5wkw6-png.30611
3A3A4D1738.png


cooltext3961176114006251-png.30741

djclne9-png.30614
2932820C35.png

zt2lbs3-png.30611
273F16F485.png

cfa5dsl-png.30616
dm5wkw6-png.30611
AF7921E704.png

cfa5dsl1-png.30874
dm5wkw6-png.30611
9CF0046921.png


To view the content, you need to Sign In or Register.