Welcome to our Community
Wanting to join the rest of our members? Feel free to sign up today.
Sign up

Deine Geschichte in Dragon Quest | Dragon Quest: Your Story [Ger-Eng-Jap-Dub][Ger-Eng-Sub][720p|1080p][Web-DL] - Netflix

Azugo

H͓̽u͓̽g͓̽o͓̽ ͓̽&͓̽ ͓̽A͓̽z͓̽u͓̽r͓̽a͓̽
Otaku Gott
Uploader
25 März 2020
3.568
35.130
118


Dragon Quest: Your Story




14177_300.webp



oie_bchbujbgr3vm-png.30595

anisearch.de schrieb:
Ryuka und sein Vater Pappas befanden sich lange Zeit auf Wanderschaft, um Ryukas Mutter Martha zu finden, die kurz nach seiner Geburt von Monstern entführt wurde. Während ihrer Reisen erhielt er als Begleiter den kleinen Borongo, eine Mischung aus Säbelzahntiger und Hyäne, und begegnete Henry, dem Prinzen von Coburg. Als auch dieser entführt wurde, eilten Pappas und Ryuka zu seiner Rettung, doch die Aktion ging gründlich schief, denn der Drahtzieher – der böse Priester Ladja – erwies sich als viel zu mächtig. Ryukas Vater starb und die beiden Jungs wurden versklavt.Zehn lange Jahre mussten Ryuka und Henry in Gefangenschaft verbringen, bis ihnen endlich die Flucht gelang. Wieder zu Hause angekommen, erfährt Ryuka im geheimen Raum seines Vaters endlich, wer seine Mutter damals entführte und warum, und dass sein Vater vermutete, der legendäre Held von Zenithia, dem sagenumwobenen Schloss im Himmel, sei niemand anderes als sein Sohn. Zusammen mit dem nun ausgewachsenen Borongo begibt sich Ryuka auf Reisen, um stärker zu werden, dem Treiben von Ladja ein Ende zu setzen und letztendlich auch seine Mutter zu retten, denn laut der letzten Worte seines Vaters soll diese immer noch am Leben sein.

Quelle: anisearch.de/anime/14177



oie_bchbujbgr3vm1-png.30596


Spieldauer: ~103 min
Genre: Abenteuer
Nebengenres: Abenteuer, Action, Fantasy, Komödie
Sprache:
Deutsch.png
Deutsch,
Japanisch.png
Japanisch,
Englisch.png
Englisch
Untertitel:
Deutsch.png
Deutsch,
Deutsch.png
Deutsch (Forced),
Englisch.png
Englisch,
Englisch.png
Englisch (Forced)
Größe pro Folge: ~3400mb, ~4660mb
Episodenanzahl: 1/1
Format: MKV
Auflösung: 720p (16:9), 1080p (16:9)
Videocodec: H264 (AVC)
Audiocodec: E-AC-3
Releasegruppe: AO
Hoster:
rapidgator-gif.30742
Rapidgator,
ddownload-gif.30720
ddownload


oie_bchbujbgr3vm2-png.30597

Rich (BBCode):

Format                                   : Matroska
Format version                           : Version 4
File size                                : 3.20 GiB
Duration                                 : 1 h 42 min
Overall bit rate mode                    : Variable
Overall bit rate                         : 4 466 kb/s
Encoded date                             : UTC 2023-01-25 16:18:28
Writing application                      : mkvmerge v73.0.0 ('25 or 6 to 4') 64-bit
Writing library                          : libebml v1.4.4 + libmatroska v1.7.1

Video
ID                                       : 1
Format                                   : AVC
Format/Info                              : Advanced Video Codec
Format profile                           : [email protected]
Format settings                          : CABAC / 3 Ref Frames
Format settings, CABAC                   : Yes
Format settings, Reference frames        : 3 frames
Codec ID                                 : V_MPEG4/ISO/AVC
Duration                                 : 1 h 42 min
Bit rate mode                            : Variable
Bit rate                                 : 2 544 kb/s
Nominal bit rate                         : 1 952 kb/s
Maximum bit rate                         : 4 305 kb/s
Width                                    : 1 280 pixels
Height                                   : 720 pixels
Display aspect ratio                     : 16:9
Frame rate mode                          : Constant
Frame rate                               : 23.976 (24000/1001) FPS
Color space                              : YUV
Chroma subsampling                       : 4:2:0
Bit depth                                : 8 bits
Scan type                                : Progressive
Bits/(Pixel*Frame)                       : 0.115
Stream size                              : 1.82 GiB (57%)
Writing library                          : x264 core 148 r2722 1b0121b
Encoding settings                        : cabac=1 / ref=3 / deblock=1:0:0 / analyse=0x1:0x111 / me=umh / subme=10 / psy=1 / psy_rd=1.00:0.00 / mixed_ref=1 / me_range=24 / chroma_me=1 / trellis=2 / 8x8dct=0 / cqm=0 / deadzone=21,11 / fast_pskip=1 / chroma_qp_offset=-2 / threads=6 / lookahead_threads=1 / sliced_threads=0 / nr=0 / decimate=1 / interlaced=0 / bluray_compat=0 / stitchable=1 / constrained_intra=0 / bframes=2 / b_pyramid=0 / b_adapt=2 / b_bias=0 / direct=3 / weightb=1 / open_gop=0 / weightp=2 / keyint=250 / keyint_min=23 / scenecut=0 / intra_refresh=0 / rc_lookahead=48 / rc=2pass / mbtree=1 / bitrate=1952 / ratetol=1.0 / qcomp=0.50 / qpmin=6 / qpmax=51 / qpstep=4 / cplxblur=20.0 / qblur=0.5 / vbv_maxrate=4305 / vbv_bufsize=5740 / nal_hrd=vbr / filler=0 / ip_ratio=1.40 / aq=1:1.00
Language                                 : Japanese
Default                                  : Yes
Forced                                   : No

Audio #1
ID                                       : 2
Format                                   : E-AC-3
Format/Info                              : Enhanced AC-3
Commercial name                          : Dolby Digital Plus
Codec ID                                 : A_EAC3
Duration                                 : 1 h 42 min
Bit rate mode                            : Constant
Bit rate                                 : 640 kb/s
Channel(s)                               : 6 channels
Channel layout                           : L R C LFE Ls Rs
Sampling rate                            : 48.0 kHz
Frame rate                               : 31.250 FPS (1536 SPF)
Compression mode                         : Lossy
Stream size                              : 469 MiB (14%)
Language                                 : German
Service kind                             : Complete Main
Default                                  : Yes
Forced                                   : No

Audio #2
ID                                       : 3
Format                                   : E-AC-3
Format/Info                              : Enhanced AC-3
Commercial name                          : Dolby Digital Plus
Codec ID                                 : A_EAC3
Duration                                 : 1 h 42 min
Bit rate mode                            : Constant
Bit rate                                 : 640 kb/s
Channel(s)                               : 6 channels
Channel layout                           : L R C LFE Ls Rs
Sampling rate                            : 48.0 kHz
Frame rate                               : 31.250 FPS (1536 SPF)
Compression mode                         : Lossy
Stream size                              : 469 MiB (14%)
Language                                 : English
Service kind                             : Complete Main
Default                                  : No
Forced                                   : No

Audio #3
ID                                       : 4
Format                                   : E-AC-3
Format/Info                              : Enhanced AC-3
Commercial name                          : Dolby Digital Plus
Codec ID                                 : A_EAC3
Duration                                 : 1 h 42 min
Bit rate mode                            : Constant
Bit rate                                 : 640 kb/s
Channel(s)                               : 6 channels
Channel layout                           : L R C LFE Ls Rs
Sampling rate                            : 48.0 kHz
Frame rate                               : 31.250 FPS (1536 SPF)
Compression mode                         : Lossy
Stream size                              : 469 MiB (14%)
Language                                 : Japanese
Service kind                             : Complete Main
Default                                  : No
Forced                                   : No

Text #1
ID                                       : 5
Format                                   : UTF-8
Codec ID                                 : S_TEXT/UTF8
Codec ID/Info                            : UTF-8 Plain Text
Duration                                 : 1 h 41 min
Bit rate                                 : 1 b/s
Count of elements                        : 42
Stream size                              : 1.30 KiB (0%)
Title                                    : Forced
Language                                 : German
Default                                  : Yes
Forced                                   : Yes

Text #2
ID                                       : 6
Format                                   : UTF-8
Codec ID                                 : S_TEXT/UTF8
Codec ID/Info                            : UTF-8 Plain Text
Duration                                 : 1 h 41 min
Bit rate                                 : 45 b/s
Count of elements                        : 1298
Stream size                              : 33.9 KiB (0%)
Language                                 : German
Default                                  : No
Forced                                   : No

Text #3
ID                                       : 7
Format                                   : UTF-8
Codec ID                                 : S_TEXT/UTF8
Codec ID/Info                            : UTF-8 Plain Text
Duration                                 : 1 h 31 min
Bit rate                                 : 2 b/s
Count of elements                        : 37
Stream size                              : 1.40 KiB (0%)
Title                                    : Forced
Language                                 : English
Default                                  : No
Forced                                   : Yes

Text #4
ID                                       : 8
Format                                   : UTF-8
Codec ID                                 : S_TEXT/UTF8
Codec ID/Info                            : UTF-8 Plain Text
Duration                                 : 1 h 37 min
Bit rate                                 : 48 b/s
Count of elements                        : 1302
Stream size                              : 34.3 KiB (0%)
Language                                 : English
Default                                  : No
Forced                                   : No
Rich (BBCode):

Format                                   : Matroska
Format version                           : Version 4
File size                                : 4.66 GiB
Duration                                 : 1 h 42 min
Overall bit rate mode                    : Variable
Overall bit rate                         : 6 509 kb/s
Encoded date                             : UTC 2023-01-25 16:26:30
Writing application                      : mkvmerge v73.0.0 ('25 or 6 to 4') 64-bit
Writing library                          : libebml v1.4.4 + libmatroska v1.7.1

Video
ID                                       : 1
Format                                   : AVC
Format/Info                              : Advanced Video Codec
Format profile                           : High@L4
Format settings                          : CABAC / 4 Ref Frames
Format settings, CABAC                   : Yes
Format settings, Reference frames        : 4 frames
Codec ID                                 : V_MPEG4/ISO/AVC
Duration                                 : 1 h 42 min
Bit rate mode                            : Variable
Bit rate                                 : 4 588 kb/s
Maximum bit rate                         : 20.0 Mb/s
Width                                    : 1 920 pixels
Height                                   : 1 080 pixels
Display aspect ratio                     : 16:9
Frame rate mode                          : Constant
Frame rate                               : 23.976 (24000/1001) FPS
Color space                              : YUV
Chroma subsampling                       : 4:2:0
Bit depth                                : 8 bits
Scan type                                : Progressive
Bits/(Pixel*Frame)                       : 0.092
Stream size                              : 3.28 GiB (70%)
Writing library                          : x264 core 148 r2717 0d2410d
Encoding settings                        : cabac=1 / ref=4 / deblock=1:0:0 / analyse=0x3:0x111 / me=umh / subme=10 / psy=1 / psy_rd=1.00:0.00 / mixed_ref=1 / me_range=120 / chroma_me=1 / trellis=2 / 8x8dct=1 / cqm=0 / deadzone=21,11 / fast_pskip=1 / chroma_qp_offset=-2 / threads=8 / lookahead_threads=2 / sliced_threads=0 / nr=0 / decimate=1 / interlaced=0 / bluray_compat=0 / stitchable=1 / constrained_intra=0 / bframes=16 / b_pyramid=2 / b_adapt=2 / b_bias=0 / direct=3 / weightb=1 / open_gop=0 / weightp=2 / keyint=240 / keyint_min=121 / scenecut=0 / intra_refresh=0 / rc_lookahead=240 / rc=crf / mbtree=1 / crf=16.0 / qcomp=0.50 / qpmin=6 / qpmax=51 / qpstep=4 / vbv_maxrate=20000 / vbv_bufsize=25000 / crf_max=0.0 / nal_hrd=vbr / filler=0 / ip_ratio=1.40 / aq=1:0.80
Language                                 : Japanese
Default                                  : Yes
Forced                                   : No

Audio #1
ID                                       : 2
Format                                   : E-AC-3
Format/Info                              : Enhanced AC-3
Commercial name                          : Dolby Digital Plus
Codec ID                                 : A_EAC3
Duration                                 : 1 h 42 min
Bit rate mode                            : Constant
Bit rate                                 : 640 kb/s
Channel(s)                               : 6 channels
Channel layout                           : L R C LFE Ls Rs
Sampling rate                            : 48.0 kHz
Frame rate                               : 31.250 FPS (1536 SPF)
Compression mode                         : Lossy
Stream size                              : 469 MiB (10%)
Language                                 : German
Service kind                             : Complete Main
Default                                  : Yes
Forced                                   : No

Audio #2
ID                                       : 3
Format                                   : E-AC-3
Format/Info                              : Enhanced AC-3
Commercial name                          : Dolby Digital Plus
Codec ID                                 : A_EAC3
Duration                                 : 1 h 42 min
Bit rate mode                            : Constant
Bit rate                                 : 640 kb/s
Channel(s)                               : 6 channels
Channel layout                           : L R C LFE Ls Rs
Sampling rate                            : 48.0 kHz
Frame rate                               : 31.250 FPS (1536 SPF)
Compression mode                         : Lossy
Stream size                              : 469 MiB (10%)
Language                                 : English
Service kind                             : Complete Main
Default                                  : No
Forced                                   : No

Audio #3
ID                                       : 4
Format                                   : E-AC-3
Format/Info                              : Enhanced AC-3
Commercial name                          : Dolby Digital Plus
Codec ID                                 : A_EAC3
Duration                                 : 1 h 42 min
Bit rate mode                            : Constant
Bit rate                                 : 640 kb/s
Channel(s)                               : 6 channels
Channel layout                           : L R C LFE Ls Rs
Sampling rate                            : 48.0 kHz
Frame rate                               : 31.250 FPS (1536 SPF)
Compression mode                         : Lossy
Stream size                              : 469 MiB (10%)
Language                                 : Japanese
Service kind                             : Complete Main
Default                                  : No
Forced                                   : No

Text #1
ID                                       : 5
Format                                   : UTF-8
Codec ID                                 : S_TEXT/UTF8
Codec ID/Info                            : UTF-8 Plain Text
Duration                                 : 1 h 41 min
Bit rate                                 : 1 b/s
Count of elements                        : 42
Stream size                              : 1.30 KiB (0%)
Title                                    : Forced
Language                                 : German
Default                                  : Yes
Forced                                   : Yes

Text #2
ID                                       : 6
Format                                   : UTF-8
Codec ID                                 : S_TEXT/UTF8
Codec ID/Info                            : UTF-8 Plain Text
Duration                                 : 1 h 41 min
Bit rate                                 : 45 b/s
Count of elements                        : 1298
Stream size                              : 33.9 KiB (0%)
Language                                 : German
Default                                  : No
Forced                                   : No

Text #3
ID                                       : 7
Format                                   : UTF-8
Codec ID                                 : S_TEXT/UTF8
Codec ID/Info                            : UTF-8 Plain Text
Duration                                 : 1 h 31 min
Bit rate                                 : 2 b/s
Count of elements                        : 37
Stream size                              : 1.40 KiB (0%)
Title                                    : Forced
Language                                 : English
Default                                  : No
Forced                                   : Yes

Text #4
ID                                       : 8
Format                                   : UTF-8
Codec ID                                 : S_TEXT/UTF8
Codec ID/Info                            : UTF-8 Plain Text
Duration                                 : 1 h 37 min
Bit rate                                 : 48 b/s
Count of elements                        : 1302
Stream size                              : 34.3 KiB (0%)
Language                                 : English
Default                                  : No
Forced                                   : No



oie_bchbujbgr3vm3-png.30598

cooltext396117611400625-png.30739

0860B42F42.png

cooltext3961176114006251-png.30741

347F0B29AA.png

To view the content, you need to Sign In or Register.