Welcome to our Community
Wanting to join the rest of our members? Feel free to sign up today.
Sign up

Demon Slayer | Kimetsu no Yaiba [Ger-Jap-Dub][Ger-Sub][720p][1080p][E-AC-3|DTS-HD][BluRay] - Hugo

Azugo

H͓̽u͓̽g͓̽o͓̽ ͓̽&͓̽ ͓̽A͓̽z͓̽u͓̽r͓̽a͓̽
Otaku Gott
Uploader
25 März 2020
3.641
36.847
118

Demon Slayer | Kimetsu no Yaiba



M08PvDN.jpg



oie_bchbujbgr3vm-png.30595
AniSearch.com schrieb:
Schon seit längst vergangenen Zeiten gibt es die Legende eines menschenfressenden Dämons, der im Wald sein Unwesen treibt. Aufgrund dessen trauen sich die ortsansässigen Bewohner nicht mehr bei Nacht hinaus. Die Legende besagt weiterhin, dass ein Dämonentöter durch das Land zieht, um solch blutdurstige Dämonen zu jagen. Für den jungen Tanjirou wird das bald zur Realität.Seit dem Tod seines Vaters hat Tanjirou es sich zur Aufgabe gemacht, seine Familie über Wasser zu halten. Trotz des harten Lebens haben sie es geschafft, glücklich zu sein. Doch diese wohlige Wärme der Glückseligkeit wurde mit einem Mal zerstört, als Tanjirou seine Familie abgeschlachtet vorfindet. Einzig und allein seine Schwester Nezuko hat überlebt, obgleich sie sich in einen Dämonen verwandelt hat. Überraschenderweise zeigt Nezuko noch Zeichen menschlicher Emotionen und Gedanken. So beginnt Tanjirous Kampf gegen die Dämonen, um seine Schwester wieder zu einem Menschen zu machen. Quelle: www.anisearch.de/anime/13658



oie_bchbujbgr3vm1-png.30596


Spieldauer: ~24min
Genre: Actiondrama
Nebengenres: Abenteuer, Action, Drama, Fantasy, Fighting-Shounen, Übermäßige Gewaltdarstellung
Jahr: 2019
Sprache:
Deutsch.png
Deutsch,
Japanisch.png
Japanisch
Untertitel:
Deutsch.png
Deutsch
Größe pro Folge: ~1000mb, ~2800mb, ~3000mb
Episodenanzahl: 26/26
Format: MKV
Auflösung: 1080p (16:9)
Videocodec: H264 (AVC)
Audiocodec: E-AC-3, DTS
Releasegruppe: Hugo
Hoster:
rapidgator-gif.30742
Rapidgator,
ddownload-gif.30720
ddownload


oie_bchbujbgr3vm2-png.30597

Rich (BBCode):
Format                                   : Matroska
Format version                           : Version 4
File size                                : 1.40 GiB
Duration                                 : 23 min 41 s
Overall bit rate                         : 8 439 kb/s
Encoded date                             : UTC 2021-02-08 10:29:54
Writing application                      : mkvmerge v53.0.0 ('Fool's Gold') 64-bit
Writing library                          : libebml v1.4.1 + libmatroska v1.6.2

Video
ID                                       : 1
Format                                   : AVC
Format/Info                              : Advanced Video Codec
Format profile                           : [email protected]
Format settings                          : CABAC / 4 Ref Frames
Format settings, CABAC                   : Yes
Format settings, Reference frames        : 4 frames
Codec ID                                 : V_MPEG4/ISO/AVC
Duration                                 : 23 min 41 s
Bit rate                                 : 7 144 kb/s
Width                                    : 1 280 pixels
Height                                   : 720 pixels
Display aspect ratio                     : 16:9
Frame rate mode                          : Constant
Frame rate                               : 23.976 (24000/1001) FPS
Color space                              : YUV
Chroma subsampling                       : 4:2:0
Bit depth                                : 8 bits
Scan type                                : Progressive
Bits/(Pixel*Frame)                       : 0.323
Stream size                              : 1.18 GiB (85%)
Writing library                          : x264 core 161
Encoding settings                        : By-Hugo
Language                                 : English
Default                                  : Yes
Forced                                   : No
Color range                              : Limited
Color primaries                          : BT.709
Transfer characteristics                 : BT.709
Matrix coefficients                      : BT.709

Audio #1
ID                                       : 3
Format                                   : E-AC-3
Format/Info                              : Enhanced AC-3
Commercial name                          : Dolby Digital Plus
Codec ID                                 : A_EAC3
Duration                                 : 23 min 41 s
Bit rate mode                            : Constant
Bit rate                                 : 640 kb/s
Channel(s)                               : 2 channels
Channel layout                           : L R
Sampling rate                            : 48.0 kHz
Frame rate                               : 31.250 FPS (1536 SPF)
Compression mode                         : Lossy
Stream size                              : 108 MiB (8%)
Title                                    : Stereo
Language                                 : German
Service kind                             : Complete Main
Default                                  : Yes
Forced                                   : No

Audio #2
ID                                       : 4
Format                                   : E-AC-3
Format/Info                              : Enhanced AC-3
Commercial name                          : Dolby Digital Plus
Codec ID                                 : A_EAC3
Duration                                 : 23 min 41 s
Bit rate mode                            : Constant
Bit rate                                 : 640 kb/s
Channel(s)                               : 2 channels
Channel layout                           : L R
Sampling rate                            : 48.0 kHz
Frame rate                               : 31.250 FPS (1536 SPF)
Compression mode                         : Lossy
Stream size                              : 108 MiB (8%)
Title                                    : Stereo
Language                                 : German
Service kind                             : Complete Main
Default                                  : No
Forced                                   : No

Text
ID                                       : 2
Format                                   : PGS
Muxing mode                              : zlib
Codec ID                                 : S_HDMV/PGS
Codec ID/Info                            : Picture based subtitle format used on BDs/HD-DVDs
Duration                                 : 20 min 4 s
Bit rate                                 : 36.3 kb/s
Count of elements                        : 462
Stream size                              : 5.21 MiB (0%)
Title                                    : German Full
Language                                 : German
Default                                  : No
Forced                                   : No

Menu
00:00:00.000                             : :Chapter 01
00:07:18.146                             : :Chapter 02
00:14:30.035                             : :Chapter 03
00:21:07.057                             : :Chapter 04
00:22:40.567                             : :Chapter 05

Rich (BBCode):
Format                                   : Matroska
Format version                           : Version 4
File size                                : 3.07 GiB
Duration                                 : 23 min 41 s
Overall bit rate                         : 18.6 Mb/s
Encoded date                             : UTC 2021-02-01 21:21:57
Writing application                      : mkvmerge v53.0.0 ('Fool's Gold') 64-bit
Writing library                          : libebml v1.4.1 + libmatroska v1.6.2

Video
ID                                       : 1
Format                                   : AVC
Format/Info                              : Advanced Video Codec
Format profile                           : [email protected]
Format settings                          : CABAC / 4 Ref Frames
Format settings, CABAC                   : Yes
Format settings, Reference frames        : 4 frames
Codec ID                                 : V_MPEG4/ISO/AVC
Duration                                 : 23 min 41 s
Bit rate                                 : 17.3 Mb/s
Width                                    : 1 920 pixels
Height                                   : 1 080 pixels
Display aspect ratio                     : 16:9
Frame rate mode                          : Constant
Frame rate                               : 23.976 (24000/1001) FPS
Color space                              : YUV
Chroma subsampling                       : 4:2:0
Bit depth                                : 8 bits
Scan type                                : Progressive
Bits/(Pixel*Frame)                       : 0.347
Stream size                              : 2.86 GiB (93%)
Writing library                          : x264 core 161
Encoding settings                        : cabac=1 / ref=4 / deblock=1:0:0 / analyse=0x3:0x133 / me=tesa / subme=9 / psy=1 / psy_rd=1.00:0.00 / mixed_ref=1 / me_range=32 / chroma_me=1 / trellis=2 / 8x8dct=1 / cqm=0 / deadzone=21,11 / fast_pskip=1 / chroma_qp_offset=-2 / threads=24 / lookahead_threads=6 / sliced_threads=0 / nr=0 / decimate=1 / interlaced=0 / bluray_compat=0 / constrained_intra=0 / bframes=16 / b_pyramid=0 / b_adapt=2 / b_bias=0 / direct=3 / weightb=1 / open_gop=0 / weightp=2 / keyint=250 / keyint_min=23 / scenecut=40 / intra_refresh=0 / rc_lookahead=80 / rc=crf / mbtree=1 / crf=14.0 / qcomp=0.60 / qpmin=0 / qpmax=69 / qpstep=4 / vbv_maxrate=60480 / vbv_bufsize=88960 / crf_max=0.0 / nal_hrd=none / filler=0 / ip_ratio=1.40 / aq=3:1.10
Language                                 : English
Default                                  : Yes
Forced                                   : No
Color range                              : Limited
Color primaries                          : BT.709
Transfer characteristics                 : BT.709
Matrix coefficients                      : BT.709

Audio #1
ID                                       : 3
Format                                   : E-AC-3
Format/Info                              : Enhanced AC-3
Commercial name                          : Dolby Digital Plus
Codec ID                                 : A_EAC3
Duration                                 : 23 min 41 s
Bit rate mode                            : Constant
Bit rate                                 : 640 kb/s
Channel(s)                               : 2 channels
Channel layout                           : L R
Sampling rate                            : 48.0 kHz
Frame rate                               : 31.250 FPS (1536 SPF)
Compression mode                         : Lossy
Stream size                              : 108 MiB (3%)
Title                                    : Stereo
Language                                 : German
Service kind                             : Complete Main
Default                                  : Yes
Forced                                   : No

Audio #2
ID                                       : 4
Format                                   : E-AC-3
Format/Info                              : Enhanced AC-3
Commercial name                          : Dolby Digital Plus
Codec ID                                 : A_EAC3
Duration                                 : 23 min 41 s
Bit rate mode                            : Constant
Bit rate                                 : 640 kb/s
Channel(s)                               : 2 channels
Channel layout                           : L R
Sampling rate                            : 48.0 kHz
Frame rate                               : 31.250 FPS (1536 SPF)
Compression mode                         : Lossy
Stream size                              : 108 MiB (3%)
Title                                    : Stereo
Language                                 : Japanese
Service kind                             : Complete Main
Default                                  : No
Forced                                   : No

Text
ID                                       : 2
Format                                   : PGS
Muxing mode                              : zlib
Codec ID                                 : S_HDMV/PGS
Codec ID/Info                            : Picture based subtitle format used on BDs/HD-DVDs
Duration                                 : 20 min 4 s
Bit rate                                 : 36.3 kb/s
Count of elements                        : 462
Stream size                              : 5.21 MiB (0%)
Title                                    : German Full
Language                                 : German
Default                                  : No
Forced                                   : No

Menu
00:00:00.000                             : :Chapter 01
00:07:18.146                             : :Chapter 02
00:14:30.035                             : :Chapter 03
00:21:07.057                             : :Chapter 04
00:22:40.567                             : :Chapter 05

Rich (BBCode):
Format                                   : Matroska
Format version                           : Version 4
File size                                : 3.21 GiB
Duration                                 : 23 min 41 s
Overall bit rate mode                    : Variable
Overall bit rate                         : 19.4 Mb/s
Encoded date                             : UTC 2021-01-30 23:31:40
Writing application                      : mkvmerge v53.0.0 ('Fool's Gold') 64-bit
Writing library                          : libebml v1.4.1 + libmatroska v1.6.2

Video
ID                                       : 1
Format                                   : AVC
Format/Info                              : Advanced Video Codec
Format profile                           : [email protected]
Format settings                          : CABAC / 4 Ref Frames
Format settings, CABAC                   : Yes
Format settings, Reference frames        : 4 frames
Codec ID                                 : V_MPEG4/ISO/AVC
Duration                                 : 23 min 41 s
Bit rate                                 : 17.3 Mb/s
Width                                    : 1 920 pixels
Height                                   : 1 080 pixels
Display aspect ratio                     : 16:9
Frame rate mode                          : Constant
Frame rate                               : 23.976 (24000/1001) FPS
Color space                              : YUV
Chroma subsampling                       : 4:2:0
Bit depth                                : 8 bits
Scan type                                : Progressive
Bits/(Pixel*Frame)                       : 0.347
Stream size                              : 2.86 GiB (89%)
Writing library                          : x264 core 161
Encoding settings                        : By-Hugo
Language                                 : English
Default                                  : Yes
Forced                                   : No
Color range                              : Limited
Color primaries                          : BT.709
Transfer characteristics                 : BT.709
Matrix coefficients                      : BT.709

Audio #1
ID                                       : 3
Format                                   : DTS XLL
Format/Info                              : Digital Theater Systems
Commercial name                          : DTS-HD Master Audio
Codec ID                                 : A_DTS
Duration                                 : 23 min 41 s
Bit rate mode                            : Variable
Bit rate                                 : 1 069 kb/s
Channel(s)                               : 2 channels
Channel layout                           : L R
Sampling rate                            : 48.0 kHz
Frame rate                               : 93.750 FPS (512 SPF)
Bit depth                                : 16 bits
Compression mode                         : Lossless
Stream size                              : 181 MiB (6%)
Title                                    : Stereo
Language                                 : German
Default                                  : Yes
Forced                                   : No

Audio #2
ID                                       : 4
Format                                   : DTS XLL
Format/Info                              : Digital Theater Systems
Commercial name                          : DTS-HD Master Audio
Codec ID                                 : A_DTS
Duration                                 : 23 min 41 s
Bit rate mode                            : Variable
Bit rate                                 : 1 064 kb/s
Channel(s)                               : 2 channels
Channel layout                           : L R
Sampling rate                            : 48.0 kHz
Frame rate                               : 93.750 FPS (512 SPF)
Bit depth                                : 16 bits
Compression mode                         : Lossless
Stream size                              : 180 MiB (5%)
Title                                    : Stereo
Language                                 : Japanese
Default                                  : No
Forced                                   : No

Text
ID                                       : 2
Format                                   : PGS
Muxing mode                              : zlib
Codec ID                                 : S_HDMV/PGS
Codec ID/Info                            : Picture based subtitle format used on BDs/HD-DVDs
Duration                                 : 20 min 4 s
Bit rate                                 : 36.3 kb/s
Count of elements                        : 462
Stream size                              : 5.21 MiB (0%)
Title                                    : German Full
Language                                 : German
Default                                  : No
Forced                                   : No

Menu
00:00:00.000                             : :Chapter 01
00:07:18.146                             : :Chapter 02
00:14:30.035                             : :Chapter 03
00:21:07.057                             : :Chapter 04
00:22:40.567                             : :Chapter 05




oie_bchbujbgr3vm3-png.30598

cooltext396117611400625-png.30739

720p EAC3
7D85F62C0D.png

1080p EAC3
0027037E55.png

1080p DTS-HD
EA7905B4DC.png


cooltext3961176114006251-png.30741

720p EAC3
E506FBF989.png

1080p EAC3
4CE835B5E9.png

1080p DTS-HD
76FA517472.png


To view the content, you need to Sign In or Register.

 
Zuletzt bearbeitet: