Welcome to our Community
Wanting to join the rest of our members? Feel free to sign up today.
Sign up

Demon Slayer: Kimetsu no Yaiba - The Movie: Mugen Train | Gekijouban Kimetsu no Yaiba: Mugen Ressha-hen [Ger-Jap-Dub][Ger-Sub][720p][1080p][E-AC-3|DTS-HD][8bits|10bits][x264|x265][BluRay] - Hugo

Azugo

H͓̽u͓̽g͓̽o͓̽ ͓̽&͓̽ ͓̽A͓̽z͓̽u͓̽r͓̽a͓̽
Otaku Gott
Uploader
25 März 2020
3.585
35.909
118


Demon Slayer: Kimetsu no Yaiba - The Movie: Mugen Train | Gekijouban Kimetsu no Yaiba: Mugen Ressha-hen



Unbenannt.png



oie_bchbujbgr3vm-png.30595
anisearch.com schrieb:
»Demon Slayer: Kimetsu no Yaiba - The Movie: Mugen Train« setzt nahtlos an die erste Staffel an und führt die Geschichte um Tanjirou, Nezuko, Zenitsu und Inosuke fort. Nachdem Tanjirou und seine Gefährten sich in der Kochou-Residenz unter der strengen Aufsicht Shinobus und Aois von ihren Wunden erholt haben und sich Aois rigorosem Training widmeten, steht ihnen nun eine neue Mission bevor. Gemeinsam mit der Flammensäule Kyoujurou Rengoku sollen sie den mysteriösen Geschehnissen und Toden, die sich auf einer Zugfahrt ereignen, auf den Grund gehen. Das kommt Tanjirou auch ganz recht, hat er doch einige Fragen an die Säule, dessen »Atem der Flammen« der Technik seines eigenen Vaters so ähnelt. Lange bleibt ihnen jedoch nicht, um die Verbindung zwischen dem »Atem der Flammen« und Tanjirous »Atem des Feuers« zu diskutieren, denn die ruhige Zugfahrt nimmt ein jähes Ende …

Gestärkt von Muzan Kibutsujis Blut, hat sich der »Niedere Dämonenmond« Nummer 1 in dem Zug eingenistet und bedroht nun nicht nur die Leben der Passagiere, sondern auch die der jungen Dämonenjäger! Können Tanjirou und Co. sich dem mächtigen Dämon erwehren und wird Tanjirou bei seinem »feurigen, neuen Mentor« Antworten auf all seine Fragen finden?
Quelle: https://www.anisearch.de/anime/14653



oie_bchbujbgr3vm1-png.30596


Spieldauer: ~117min
Genre: Actiondrama
Nebengenres: Abenteuer, Fantasy, Fighting-Shounen, Übermäßige Gewaltdarstellung
Jahr: 2020
Sprache:
Deutsch.png
Deutsch,
Japanisch.png
Japanisch
Untertitel:
Deutsch.png
Deutsch
Größe pro Folge: ~4400mb, ~8180mb ~10300mb, ~10000mb
Episodenanzahl: 1/1
Format: MKV
Auflösung: 720p (16:9), 1080p (16:9)
Videocodec: H264 (AVC). H265 (HEVC)
Audiocodec: E-AC-3, DTS-HD
Releasegruppe: Hugo
Hoster:
rapidgator-gif.30742
Rapidgator,
ddownload-gif.30720
ddownload


oie_bchbujbgr3vm2-png.30597

Rich (BBCode):
Format                                   : Matroska
Format version                           : Version 4
File size                                : 4.40 GiB
Duration                                 : 1 h 56 min
Overall bit rate                         : 5 399 kb/s
Encoded date                             : UTC 2021-12-14 23:46:02
Writing application                      : mkvmerge v63.0.0 ('Everything') 64-bit
Writing library                          : libebml v1.4.2 + libmatroska v1.6.4
Release                                  : By Hugo
Version                                  : 1.4

Video
ID                                       : 1
Format                                   : AVC
Format/Info                              : Advanced Video Codec
Format profile                           : [email protected]
Format settings                          : CABAC / 6 Ref Frames
Format settings, CABAC                   : Yes
Format settings, Reference frames        : 6 frames
Codec ID                                 : V_MPEG4/ISO/AVC
Duration                                 : 1 h 56 min
Bit rate                                 : 4 011 kb/s
Width                                    : 1 280 pixels
Height                                   : 720 pixels
Display aspect ratio                     : 16:9
Frame rate mode                          : Constant
Frame rate                               : 23.976 (24000/1001) FPS
Color space                              : YUV
Chroma subsampling                       : 4:2:0
Bit depth                                : 8 bits
Scan type                                : Progressive
Bits/(Pixel*Frame)                       : 0.182
Stream size                              : 3.27 GiB (74%)
Language                                 : English
Default                                  : No
Forced                                   : No
Color range                              : Limited
Color primaries                          : BT.709
Transfer characteristics                 : BT.709
Matrix coefficients                      : BT.709

Audio #1
ID                                       : 3
Format                                   : E-AC-3
Format/Info                              : Enhanced AC-3
Commercial name                          : Dolby Digital Plus
Codec ID                                 : A_EAC3
Duration                                 : 1 h 56 min
Bit rate mode                            : Constant
Bit rate                                 : 640 kb/s
Channel(s)                               : 6 channels
Channel layout                           : L R C LFE Ls Rs
Sampling rate                            : 48.0 kHz
Frame rate                               : 31.250 FPS (1536 SPF)
Bit depth                                : 16 bits
Compression mode                         : Lossy
Stream size                              : 534 MiB (12%)
Title                                    : Surround 5.1
Language                                 : German
Service kind                             : Complete Main
Default                                  : Yes
Forced                                   : No

Audio #2
ID                                       : 4
Format                                   : E-AC-3
Format/Info                              : Enhanced AC-3
Commercial name                          : Dolby Digital Plus
Codec ID                                 : A_EAC3
Duration                                 : 1 h 56 min
Bit rate mode                            : Constant
Bit rate                                 : 640 kb/s
Channel(s)                               : 6 channels
Channel layout                           : L R C LFE Ls Rs
Sampling rate                            : 48.0 kHz
Frame rate                               : 31.250 FPS (1536 SPF)
Bit depth                                : 16 bits
Compression mode                         : Lossy
Stream size                              : 534 MiB (12%)
Title                                    : Surround 5.1
Language                                 : Japanese
Service kind                             : Complete Main
Default                                  : No
Forced                                   : No

Text
ID                                       : 2
Format                                   : PGS
Muxing mode                              : zlib
Codec ID                                 : S_HDMV/PGS
Codec ID/Info                            : Picture based subtitle format used on BDs/HD-DVDs
Title                                    : German Full
Language                                 : German
Default                                  : No
Forced                                   : No

Menu
00:00:00.000                             : :Chapter 01
00:05:27.577                             : :Chapter 02
00:16:08.550                             : :Chapter 03
00:25:03.627                             : :Chapter 04
00:34:34.280                             : :Chapter 05
00:43:40.784                             : :Chapter 06
00:53:19.196                             : :Chapter 07
01:02:21.279                             : :Chapter 08
01:12:13.078                             : :Chapter 09
01:21:09.406                             : :Chapter 10
01:30:51.779                             : :Chapter 11
01:40:18.012                             : :Chapter 12
01:52:23.445                             : :Chapter 13

Rich (BBCode):
Format                                   : Matroska
Format version                           : Version 4
File size                                : 8.18 GiB
Duration                                 : 1 h 56 min
Overall bit rate                         : 10.0 Mb/s
Encoded date                             : UTC 2021-12-15 12:54:00
Writing application                      : mkvmerge v63.0.0 ('Everything') 64-bit
Writing library                          : libebml v1.4.2 + libmatroska v1.6.4
Release                                  : By Hugo
Version                                  : 1.6

Video
ID                                       : 1
Format                                   : AVC
Format/Info                              : Advanced Video Codec
Format profile                           : [email protected]
Format settings                          : CABAC / 8 Ref Frames
Format settings, CABAC                   : Yes
Format settings, Reference frames        : 8 frames
Codec ID                                 : V_MPEG4/ISO/AVC
Duration                                 : 1 h 56 min
Bit rate                                 : 8 735 kb/s
Width                                    : 1 920 pixels
Height                                   : 1 080 pixels
Display aspect ratio                     : 16:9
Frame rate mode                          : Constant
Frame rate                               : 23.976 (24000/1001) FPS
Color space                              : YUV
Chroma subsampling                       : 4:2:0
Bit depth                                : 8 bits
Scan type                                : Progressive
Bits/(Pixel*Frame)                       : 0.176
Stream size                              : 7.12 GiB (87%)
Language                                 : English
Default                                  : No
Forced                                   : No
Color range                              : Limited
Color primaries                          : BT.709
Transfer characteristics                 : BT.709
Matrix coefficients                      : BT.709

Audio #1
ID                                       : 3
Format                                   : E-AC-3
Format/Info                              : Enhanced AC-3
Commercial name                          : Dolby Digital Plus
Codec ID                                 : A_EAC3
Duration                                 : 1 h 56 min
Bit rate mode                            : Constant
Bit rate                                 : 640 kb/s
Channel(s)                               : 6 channels
Channel layout                           : L R C LFE Ls Rs
Sampling rate                            : 48.0 kHz
Frame rate                               : 31.250 FPS (1536 SPF)
Bit depth                                : 16 bits
Compression mode                         : Lossy
Stream size                              : 534 MiB (6%)
Title                                    : Surround 5.1
Language                                 : German
Service kind                             : Complete Main
Default                                  : Yes
Forced                                   : No

Audio #2
ID                                       : 4
Format                                   : E-AC-3
Format/Info                              : Enhanced AC-3
Commercial name                          : Dolby Digital Plus
Codec ID                                 : A_EAC3
Duration                                 : 1 h 56 min
Bit rate mode                            : Constant
Bit rate                                 : 640 kb/s
Channel(s)                               : 6 channels
Channel layout                           : L R C LFE Ls Rs
Sampling rate                            : 48.0 kHz
Frame rate                               : 31.250 FPS (1536 SPF)
Bit depth                                : 16 bits
Compression mode                         : Lossy
Stream size                              : 534 MiB (6%)
Title                                    : Surround 5.1
Language                                 : Japanese
Service kind                             : Complete Main
Default                                  : No
Forced                                   : No

Text
ID                                       : 2
Format                                   : PGS
Muxing mode                              : zlib
Codec ID                                 : S_HDMV/PGS
Codec ID/Info                            : Picture based subtitle format used on BDs/HD-DVDs
Duration                                 : 1 h 51 min
Bit rate                                 : 32.8 kb/s
Count of elements                        : 2410
Stream size                              : 26.2 MiB (0%)
Title                                    : German Full
Language                                 : German
Default                                  : No
Forced                                   : No

Menu
00:00:00.000                             : :Chapter 01
00:05:27.577                             : :Chapter 02
00:16:08.550                             : :Chapter 03
00:25:03.627                             : :Chapter 04
00:34:34.280                             : :Chapter 05
00:43:40.784                             : :Chapter 06
00:53:19.196                             : :Chapter 07
01:02:21.279                             : :Chapter 08
01:12:13.078                             : :Chapter 09
01:21:09.406                             : :Chapter 10
01:30:51.779                             : :Chapter 11
01:40:18.012                             : :Chapter 12
01:52:23.445                             : :Chapter 13

Rich (BBCode):
Format                                   : Matroska
Format version                           : Version 4
File size                                : 10.3 GiB
Duration                                 : 1 h 56 min
Overall bit rate mode                    : Variable
Overall bit rate                         : 12.6 Mb/s
Encoded date                             : UTC 2021-12-14 23:43:22
Writing application                      : mkvmerge v63.0.0 ('Everything') 64-bit
Writing library                          : libebml v1.4.2 + libmatroska v1.6.4
Release                                  : By Hugo
Version                                  : 1.4

Video
ID                                       : 1
Format                                   : AVC
Format/Info                              : Advanced Video Codec
Format profile                           : [email protected]
Format settings                          : CABAC / 8 Ref Frames
Format settings, CABAC                   : Yes
Format settings, Reference frames        : 8 frames
Codec ID                                 : V_MPEG4/ISO/AVC
Duration                                 : 1 h 56 min
Bit rate                                 : 8 735 kb/s
Width                                    : 1 920 pixels
Height                                   : 1 080 pixels
Display aspect ratio                     : 16:9
Frame rate mode                          : Constant
Frame rate                               : 23.976 (24000/1001) FPS
Color space                              : YUV
Chroma subsampling                       : 4:2:0
Bit depth                                : 8 bits
Scan type                                : Progressive
Bits/(Pixel*Frame)                       : 0.176
Stream size                              : 7.12 GiB (69%)
Language                                 : English
Default                                  : No
Forced                                   : No
Color range                              : Limited
Color primaries                          : BT.709
Transfer characteristics                 : BT.709
Matrix coefficients                      : BT.709

Audio #1
ID                                       : 3
Format                                   : DTS XLL
Format/Info                              : Digital Theater Systems
Commercial name                          : DTS-HD Master Audio
Codec ID                                 : A_DTS
Duration                                 : 1 h 56 min
Bit rate mode                            : Variable
Bit rate                                 : 1 952 kb/s
Channel(s)                               : 6 channels
Channel layout                           : C L R Ls Rs LFE
Sampling rate                            : 48.0 kHz
Frame rate                               : 93.750 FPS (512 SPF)
Bit depth                                : 16 bits
Compression mode                         : Lossless
Stream size                              : 1.59 GiB (15%)
Title                                    : Surround 5.1
Language                                 : German
Default                                  : Yes
Forced                                   : No

Audio #2
ID                                       : 4
Format                                   : DTS XLL
Format/Info                              : Digital Theater Systems
Commercial name                          : DTS-HD Master Audio
Codec ID                                 : A_DTS
Duration                                 : 1 h 56 min
Bit rate mode                            : Variable
Bit rate                                 : 1 931 kb/s
Channel(s)                               : 6 channels
Channel layout                           : C L R Ls Rs LFE
Sampling rate                            : 48.0 kHz
Frame rate                               : 93.750 FPS (512 SPF)
Bit depth                                : 16 bits
Compression mode                         : Lossless
Stream size                              : 1.58 GiB (15%)
Title                                    : Surround 5.1
Language                                 : Japanese
Default                                  : No
Forced                                   : No

Text
ID                                       : 2
Format                                   : PGS
Muxing mode                              : zlib
Codec ID                                 : S_HDMV/PGS
Codec ID/Info                            : Picture based subtitle format used on BDs/HD-DVDs
Duration                                 : 1 h 51 min
Bit rate                                 : 32.8 kb/s
Count of elements                        : 2410
Stream size                              : 26.2 MiB (0%)
Title                                    : German Full
Language                                 : German
Default                                  : No
Forced                                   : No

Menu
00:00:00.000                             : :Chapter 01
00:05:27.577                             : :Chapter 02
00:16:08.550                             : :Chapter 03
00:25:03.627                             : :Chapter 04
00:34:34.280                             : :Chapter 05
00:43:40.784                             : :Chapter 06
00:53:19.196                             : :Chapter 07
01:02:21.279                             : :Chapter 08
01:12:13.078                             : :Chapter 09
01:21:09.406                             : :Chapter 10
01:30:51.779                             : :Chapter 11
01:40:18.012                             : :Chapter 12
01:52:23.445                             : :Chapter 13

Rich (BBCode):
Format                                   : Matroska
Format version                           : Version 4
File size                                : 10.0 GiB
Duration                                 : 1 h 56 min
Overall bit rate mode                    : Variable
Overall bit rate                         : 12.3 Mb/s
Encoded date                             : UTC 2021-12-17 16:54:17
Writing application                      : mkvmerge v63.0.0 ('Everything') 64-bit
Writing library                          : libebml v1.4.2 + libmatroska v1.6.4
Release                                  : By Hugo
Version                                  : 1.4

Video
ID                                       : 1
Format                                   : HEVC
Format/Info                              : High Efficiency Video Coding
Format profile                           : Main [email protected]@Main
Codec ID                                 : V_MPEGH/ISO/HEVC
Duration                                 : 1 h 56 min
Bit rate                                 : 8 412 kb/s
Width                                    : 1 920 pixels
Height                                   : 1 080 pixels
Display aspect ratio                     : 16:9
Frame rate mode                          : Constant
Frame rate                               : 23.976 (24000/1001) FPS
Color space                              : YUV
Chroma subsampling                       : 4:2:0 (Type 0)
Bit depth                                : 10 bits
Bits/(Pixel*Frame)                       : 0.169
Stream size                              : 6.86 GiB (68%)
Language                                 : English
Default                                  : No
Forced                                   : No
Color range                              : Limited
Color primaries                          : BT.709
Transfer characteristics                 : BT.709
Matrix coefficients                      : BT.709

Audio #1
ID                                       : 3
Format                                   : DTS XLL
Format/Info                              : Digital Theater Systems
Commercial name                          : DTS-HD Master Audio
Codec ID                                 : A_DTS
Duration                                 : 1 h 56 min
Bit rate mode                            : Variable
Bit rate                                 : 1 952 kb/s
Channel(s)                               : 6 channels
Channel layout                           : C L R Ls Rs LFE
Sampling rate                            : 48.0 kHz
Frame rate                               : 93.750 FPS (512 SPF)
Bit depth                                : 16 bits
Compression mode                         : Lossless
Stream size                              : 1.59 GiB (16%)
Title                                    : Surround 5.1
Language                                 : German
Default                                  : Yes
Forced                                   : No

Audio #2
ID                                       : 4
Format                                   : DTS XLL
Format/Info                              : Digital Theater Systems
Commercial name                          : DTS-HD Master Audio
Codec ID                                 : A_DTS
Duration                                 : 1 h 56 min
Bit rate mode                            : Variable
Bit rate                                 : 1 931 kb/s
Channel(s)                               : 6 channels
Channel layout                           : C L R Ls Rs LFE
Sampling rate                            : 48.0 kHz
Frame rate                               : 93.750 FPS (512 SPF)
Bit depth                                : 16 bits
Compression mode                         : Lossless
Stream size                              : 1.58 GiB (16%)
Title                                    : Surround 5.1
Language                                 : Japanese
Default                                  : No
Forced                                   : No

Text
ID                                       : 2
Format                                   : PGS
Muxing mode                              : zlib
Codec ID                                 : S_HDMV/PGS
Codec ID/Info                            : Picture based subtitle format used on BDs/HD-DVDs
Duration                                 : 1 h 51 min
Bit rate                                 : 32.8 kb/s
Count of elements                        : 2410
Stream size                              : 26.2 MiB (0%)
Title                                    : German Full
Language                                 : German
Default                                  : No
Forced                                   : No

Menu
00:00:00.000                             : :Chapter 01
00:05:27.577                             : :Chapter 02
00:16:08.550                             : :Chapter 03
00:25:03.627                             : :Chapter 04
00:34:34.280                             : :Chapter 05
00:43:40.784                             : :Chapter 06
00:53:19.196                             : :Chapter 07
01:02:21.279                             : :Chapter 08
01:12:13.078                             : :Chapter 09
01:21:09.406                             : :Chapter 10
01:30:51.779                             : :Chapter 11
01:40:18.012                             : :Chapter 12
01:52:23.445                             : :Chapter 13





oie_bchbujbgr3vm3-png.30598

cooltext396117611400625-png.30739

720p EAC3
43CFDAFBC8.png

1080p EAC3
628A20972F.png

1080p DTS-HD
D66806D1F5.png

x265 1080p DTS-HD
C60F4EFB46.png


cooltext3961176114006251-png.30741

720p EAC3
1D9C0D87B7.png

1080p EAC3
8EAEE4E7CE.png

1080p DTS-HD
E6442DEF34.png

x265 1080p DTS-HD
8541A25095.png


To view the content, you need to Sign In or Register.

 
Zuletzt bearbeitet: