Welcome to our Community
Wanting to join the rest of our members? Feel free to sign up today.
Sign up

Detektiv Conan: Die stahlblaue Faust Movie 23 | Meitantei Conan: Konjou no Fist [Jap-Ger-Dub][Ger-Sub][720p][1080p][BluRay] - Hugo

Azugo

H͓̽u͓̽g͓̽o͓̽ ͓̽&͓̽ ͓̽A͓̽z͓̽u͓̽r͓̽a͓̽
Otaku Gott
Uploader
25 März 2020
3.649
37.014
118

Detektiv Conan: Die stahlblaue Faust Movie 23 | Meitantei Conan: Konjou no Fist



vHjf8xN.jpg



oie_bchbujbgr3vm-png.30595
AniSearch.com schrieb:
Conans Gegenspieler „Kaito Kid“ stellt ihm eine Falle. Transportiert in einer Tasche, findet sich der kleine Meisterdetektiv in der asiatischen Metropole Singapur wieder und mit einem explodierenden Wagen in einem Tunnel der Stadt beginnt sein neuer Fall!Am Tatort wird eine mysteriöse Karte gefunden und wie sich herausstellt, hat Kaito Kid es auf einen besonderen Saphir, die „Stahlblaue Faust“, abgesehen. Wenn Kaito Kid nicht gestoppt wird, ist Singapur dem Untergang geweiht! So ist es wieder einmal an Conan, den neuen und rätselhaften Fall zu lösen. Quelle: www.anisearch.de/anime/14013



oie_bchbujbgr3vm1-png.30596


Spieldauer: ~109min
Genre: Krimi
Nebengenres: Krimi
Jahr: 2019
Sprache:
Deutsch.png
Deutsch,
Japanisch.png
Japanisch
Untertitel:
Deutsch.png
Deutsch
Größe pro Folge: ~3810mb, ~7530mb, ~12190mb
Episodenanzahl: 1/1
Format: MKV
Auflösung: 720p (16:9), 1080p (16:9)
Videocodec: H264 (AVC)
Audiocodec: E-AC-3, DTS
Releasegruppe: Hugo
Hoster:
rapidgator-gif.30742
Rapidgator,
ddownload-gif.30720
ddownload


oie_bchbujbgr3vm2-png.30597

Rich (BBCode):
Format                                   : Matroska
Format version                           : Version 4
File size                                : 3.73 GiB
Duration                                 : 1 h 49 min
Overall bit rate                         : 4 890 kb/s
Encoded date                             : UTC 2020-10-15 08:53:12
Writing application                      : mkvmerge v51.0.0 ('I Wish') 64-bit
Writing library                          : libebml v1.4.0 + libmatroska v1.6.2

Video
ID                                       : 1
ID in the original source medium         : 4113 (0x1011)
Format                                   : AVC
Format/Info                              : Advanced Video Codec
Format profile                           : High@L5
Format settings                          : CABAC / 8 Ref Frames
Format settings, CABAC                   : Yes
Format settings, Reference frames        : 8 frames
Codec ID                                 : V_MPEG4/ISO/AVC
Duration                                 : 1 h 49 min
Bit rate                                 : 3 590 kb/s
Width                                    : 1 280 pixels
Height                                   : 720 pixels
Display aspect ratio                     : 16:9
Frame rate mode                          : Constant
Frame rate                               : 23.976 (24000/1001) FPS
Color space                              : YUV
Chroma subsampling                       : 4:2:0
Bit depth                                : 8 bits
Scan type                                : Progressive
Bits/(Pixel*Frame)                       : 0.162
Stream size                              : 2.74 GiB (73%)
Writing library                          : x264 core 161
Language                                 : English
Default                                  : Yes
Forced                                   : No
Original source medium                   : Blu-ray

Audio #1
ID                                       : 4
ID in the original source medium         : 4352 (0x1100)
Format                                   : E-AC-3
Format/Info                              : Enhanced AC-3
Commercial name                          : Dolby Digital Plus
Codec ID                                 : A_EAC3
Duration                                 : 1 h 49 min
Bit rate mode                            : Constant
Bit rate                                 : 640 kb/s
Channel(s)                               : 6 channels
Channel layout                           : L R C LFE Ls Rs
Sampling rate                            : 48.0 kHz
Frame rate                               : 31.250 FPS (1536 SPF)
Compression mode                         : Lossy
Stream size                              : 499 MiB (13%)
Title                                    : Surround 5.1
Language                                 : Japanese
Service kind                             : Complete Main
Default                                  : Yes
Forced                                   : No
Original source medium                   : Blu-ray

Audio #2
ID                                       : 5
ID in the original source medium         : 4353 (0x1101)
Format                                   : E-AC-3
Format/Info                              : Enhanced AC-3
Commercial name                          : Dolby Digital Plus
Codec ID                                 : A_EAC3
Duration                                 : 1 h 49 min
Bit rate mode                            : Constant
Bit rate                                 : 640 kb/s
Channel(s)                               : 6 channels
Channel layout                           : L R C LFE Ls Rs
Sampling rate                            : 48.0 kHz
Frame rate                               : 31.250 FPS (1536 SPF)
Compression mode                         : Lossy
Stream size                              : 499 MiB (13%)
Title                                    : Surround 5.1
Language                                 : German
Service kind                             : Complete Main
Default                                  : No
Forced                                   : No
Original source medium                   : Blu-ray

Text #1
ID                                       : 2
ID in the original source medium         : 4608 (0x1200)
Format                                   : PGS
Muxing mode                              : zlib
Codec ID                                 : S_HDMV/PGS
Codec ID/Info                            : Picture based subtitle format used on BDs/HD-DVDs
Duration                                 : 1 h 48 min
Bit rate                                 : 38.9 kb/s
Count of elements                        : 3286
Stream size                              : 30.2 MiB (1%)
Title                                    : Germann Full
Language                                 : German
Default                                  : No
Forced                                   : No
Original source medium                   : Blu-ray

Text #2
ID                                       : 3
ID in the original source medium         : 4609 (0x1201)
Format                                   : PGS
Muxing mode                              : zlib
Codec ID                                 : S_HDMV/PGS
Codec ID/Info                            : Picture based subtitle format used on BDs/HD-DVDs
Duration                                 : 1 h 46 min
Bit rate                                 : 6 854 b/s
Count of elements                        : 606
Stream size                              : 5.22 MiB (0%)
Title                                    : German Forced
Language                                 : German
Default                                  : No
Forced                                   : No
Original source medium                   : Blu-ray

Menu
00:00:00.000                             : :Chapter 01
00:09:22.478                             : :Chapter 02
00:19:00.347                             : :Chapter 03
00:28:40.468                             : :Chapter 04
00:38:55.374                             : :Chapter 05
00:45:58.172                             : :Chapter 06
00:54:54.207                             : :Chapter 07
01:04:01.170                             : :Chapter 08
01:14:09.862                             : :Chapter 09
01:20:44.381                             : :Chapter 10
01:43:18.734                             : :Chapter 11
01:47:09.256                             : :Chapter 12
01:49:05.205                             : :Chapter 13

Rich (BBCode):
Format                                   : Matroska
Format version                           : Version 4
File size                                : 11.9 GiB
Duration                                 : 1 h 49 min
Overall bit rate mode                    : Variable
Overall bit rate                         : 15.6 Mb/s
Encoded date                             : UTC 2020-10-15 08:38:47
Writing application                      : mkvmerge v51.0.0 ('I Wish') 64-bit
Writing library                          : libebml v1.4.0 + libmatroska v1.6.2

Video
ID                                       : 1
ID in the original source medium         : 4113 (0x1011)
Format                                   : AVC
Format/Info                              : Advanced Video Codec
Format profile                           : High@L5
Format settings                          : CABAC / 8 Ref Frames
Format settings, CABAC                   : Yes
Format settings, Reference frames        : 8 frames
Codec ID                                 : V_MPEG4/ISO/AVC
Duration                                 : 1 h 49 min
Bit rate                                 : 8 355 kb/s
Width                                    : 1 920 pixels
Height                                   : 1 080 pixels
Display aspect ratio                     : 16:9
Frame rate mode                          : Constant
Frame rate                               : 23.976 (24000/1001) FPS
Color space                              : YUV
Chroma subsampling                       : 4:2:0
Bit depth                                : 8 bits
Scan type                                : Progressive
Bits/(Pixel*Frame)                       : 0.168
Stream size                              : 6.37 GiB (53%)
Writing library                          : x264 core 161
Language                                 : English
Default                                  : Yes
Forced                                   : No
Original source medium                   : Blu-ray

Audio #1
ID                                       : 4
ID in the original source medium         : 4352 (0x1100)
Format                                   : DTS XLL
Format/Info                              : Digital Theater Systems
Commercial name                          : DTS-HD Master Audio
Codec ID                                 : A_DTS
Duration                                 : 1 h 49 min
Bit rate mode                            : Variable
Bit rate                                 : 3 591 kb/s
Channel(s)                               : 6 channels
Channel layout                           : C L R Ls Rs LFE
Sampling rate                            : 48.0 kHz
Frame rate                               : 93.750 FPS (512 SPF)
Bit depth                                : 24 bits
Compression mode                         : Lossless
Stream size                              : 2.74 GiB (23%)
Title                                    : Surround 5.1
Language                                 : Japanese
Default                                  : Yes
Forced                                   : No
Original source medium                   : Blu-ray

Audio #2
ID                                       : 5
ID in the original source medium         : 4353 (0x1101)
Format                                   : DTS XLL
Format/Info                              : Digital Theater Systems
Commercial name                          : DTS-HD Master Audio
Codec ID                                 : A_DTS
Duration                                 : 1 h 49 min
Bit rate mode                            : Variable
Bit rate                                 : 3 655 kb/s
Channel(s)                               : 6 channels
Channel layout                           : C L R Ls Rs LFE
Sampling rate                            : 48.0 kHz
Frame rate                               : 93.750 FPS (512 SPF)
Bit depth                                : 24 bits
Compression mode                         : Lossless
Stream size                              : 2.79 GiB (23%)
Title                                    : Surround 5.1
Language                                 : German
Default                                  : No
Forced                                   : No
Original source medium                   : Blu-ray

Text #1
ID                                       : 2
ID in the original source medium         : 4608 (0x1200)
Format                                   : PGS
Muxing mode                              : zlib
Codec ID                                 : S_HDMV/PGS
Codec ID/Info                            : Picture based subtitle format used on BDs/HD-DVDs
Duration                                 : 1 h 48 min
Bit rate                                 : 38.9 kb/s
Count of elements                        : 3286
Stream size                              : 30.2 MiB (0%)
Title                                    : German Full
Language                                 : German
Default                                  : No
Forced                                   : No
Original source medium                   : Blu-ray

Text #2
ID                                       : 3
ID in the original source medium         : 4609 (0x1201)
Format                                   : PGS
Muxing mode                              : zlib
Codec ID                                 : S_HDMV/PGS
Codec ID/Info                            : Picture based subtitle format used on BDs/HD-DVDs
Duration                                 : 1 h 46 min
Bit rate                                 : 6 854 b/s
Count of elements                        : 606
Stream size                              : 5.22 MiB (0%)
Title                                    : German Forced
Language                                 : German
Default                                  : No
Forced                                   : No
Original source medium                   : Blu-ray

Menu
00:00:00.000                             : :Chapter 01
00:09:22.478                             : :Chapter 02
00:19:00.347                             : :Chapter 03
00:28:40.468                             : :Chapter 04
00:38:55.374                             : :Chapter 05
00:45:58.172                             : :Chapter 06
00:54:54.207                             : :Chapter 07
01:04:01.170                             : :Chapter 08
01:14:09.862                             : :Chapter 09
01:20:44.381                             : :Chapter 10
01:43:18.734                             : :Chapter 11
01:47:09.256                             : :Chapter 12
01:49:05.205                             : :Chapter 13
Rich (BBCode):
Format                                   : Matroska
Format version                           : Version 4
File size                                : 7.36 GiB
Duration                                 : 1 h 49 min
Overall bit rate                         : 9 654 kb/s
Encoded date                             : UTC 2020-10-15 08:48:10
Writing application                      : mkvmerge v51.0.0 ('I Wish') 64-bit
Writing library                          : libebml v1.4.0 + libmatroska v1.6.2

Video
ID                                       : 1
ID in the original source medium         : 4113 (0x1011)
Format                                   : AVC
Format/Info                              : Advanced Video Codec
Format profile                           : High@L5
Format settings                          : CABAC / 8 Ref Frames
Format settings, CABAC                   : Yes
Format settings, Reference frames        : 8 frames
Codec ID                                 : V_MPEG4/ISO/AVC
Duration                                 : 1 h 49 min
Bit rate                                 : 8 355 kb/s
Width                                    : 1 920 pixels
Height                                   : 1 080 pixels
Display aspect ratio                     : 16:9
Frame rate mode                          : Constant
Frame rate                               : 23.976 (24000/1001) FPS
Color space                              : YUV
Chroma subsampling                       : 4:2:0
Bit depth                                : 8 bits
Scan type                                : Progressive
Bits/(Pixel*Frame)                       : 0.168
Stream size                              : 6.37 GiB (87%)
Writing library                          : x264 core 161
Language                                 : English
Default                                  : Yes
Forced                                   : No
Original source medium                   : Blu-ray

Audio #1
ID                                       : 4
ID in the original source medium         : 4352 (0x1100)
Format                                   : E-AC-3
Format/Info                              : Enhanced AC-3
Commercial name                          : Dolby Digital Plus
Codec ID                                 : A_EAC3
Duration                                 : 1 h 49 min
Bit rate mode                            : Constant
Bit rate                                 : 640 kb/s
Channel(s)                               : 6 channels
Channel layout                           : L R C LFE Ls Rs
Sampling rate                            : 48.0 kHz
Frame rate                               : 31.250 FPS (1536 SPF)
Compression mode                         : Lossy
Stream size                              : 499 MiB (7%)
Title                                    : Surround 5.1
Language                                 : Japanese
Service kind                             : Complete Main
Default                                  : Yes
Forced                                   : No
Original source medium                   : Blu-ray

Audio #2
ID                                       : 5
ID in the original source medium         : 4353 (0x1101)
Format                                   : E-AC-3
Format/Info                              : Enhanced AC-3
Commercial name                          : Dolby Digital Plus
Codec ID                                 : A_EAC3
Duration                                 : 1 h 49 min
Bit rate mode                            : Constant
Bit rate                                 : 640 kb/s
Channel(s)                               : 6 channels
Channel layout                           : L R C LFE Ls Rs
Sampling rate                            : 48.0 kHz
Frame rate                               : 31.250 FPS (1536 SPF)
Compression mode                         : Lossy
Stream size                              : 499 MiB (7%)
Title                                    : Surround 5.1
Writing library                          : Lavc58.91.100 eac3
Language                                 : German
Service kind                             : Complete Main
Default                                  : No
Forced                                   : No
Original source medium                   : Blu-ray

Text #1
ID                                       : 2
ID in the original source medium         : 4608 (0x1200)
Format                                   : PGS
Muxing mode                              : zlib
Codec ID                                 : S_HDMV/PGS
Codec ID/Info                            : Picture based subtitle format used on BDs/HD-DVDs
Duration                                 : 1 h 48 min
Bit rate                                 : 38.9 kb/s
Count of elements                        : 3286
Stream size                              : 30.2 MiB (0%)
Title                                    : German Full
Language                                 : German
Default                                  : No
Forced                                   : No
Original source medium                   : Blu-ray

Text #2
ID                                       : 3
ID in the original source medium         : 4609 (0x1201)
Format                                   : PGS
Muxing mode                              : zlib
Codec ID                                 : S_HDMV/PGS
Codec ID/Info                            : Picture based subtitle format used on BDs/HD-DVDs
Duration                                 : 1 h 46 min
Bit rate                                 : 6 854 b/s
Count of elements                        : 606
Stream size                              : 5.22 MiB (0%)
Title                                    : German Forced
Language                                 : German
Default                                  : No
Forced                                   : No
Original source medium                   : Blu-ray

Menu
00:00:00.000                             : :Chapter 01
00:09:22.478                             : :Chapter 02
00:19:00.347                             : :Chapter 03
00:28:40.468                             : :Chapter 04
00:38:55.374                             : :Chapter 05
00:45:58.172                             : :Chapter 06
00:54:54.207                             : :Chapter 07
01:04:01.170                             : :Chapter 08
01:14:09.862                             : :Chapter 09
01:20:44.381                             : :Chapter 10
01:43:18.734                             : :Chapter 11
01:47:09.256                             : :Chapter 12
01:49:05.205                             : :Chapter 13




oie_bchbujbgr3vm3-png.30598

cooltext396117611400625-png.30739

720p EAC3
A4134086ED.png

1080p EAC3
3351478EF6.png

1080p DTS-HD
72D5E1EF16.png


cooltext3961176114006251-png.30741

720p EAC3
F9E20418E4.png

1080p EAC3
69E9A2D4B9.png

1080p DTS-HD
FEA8585DAA.png


To view the content, you need to Sign In or Register.

 
Zuletzt bearbeitet: