Welcome to our Community
Wanting to join the rest of our members? Feel free to sign up today.
Sign up

Detektiv Conan Film 24: Die scharlachrote Kugel | Meitantei Conan: Hiiro no Dangan[Ger-Jap-Dub][Ger-Sub][1080p][DTS][BluRay] - Flower

Azugo

H͓̽u͓̽g͓̽o͓̽ ͓̽&͓̽ ͓̽A͓̽z͓̽u͓̽r͓̽a͓̽
Otaku Gott
Uploader
25 März 2020
3.530
34.206
118

Detektiv Conan: Die scharlachrote Kugel | Meitantei Conan: Hiiro no Dangan



14687.webp



oie_bchbujbgr3vm-png.30595

anisearch.com schrieb:
In »Detektiv Conan: Die scharlachrote Kugel« hält ganz Japan den Atem an, denn die World Sports Games, das größte Sportereignis der Welt, sind in diesem Jahr zu Gast im Land. Parallel zur Eröffnungsfeier findet noch ein weiteres Medienhighlight statt: die Einweihung eines Vakuumröhren-Supraleitzugs, der dank neuester japanischer Technologie Geschwindigkeiten von bis zu 1.000 Stundenkilometern zu erreichen vermag. Kein Wunder also, dass die Feierlichkeiten Unmengen an Menschen anziehen – darunter aber leider auch verbrecherische Kräfte, die einen finsteren Plan verfolgen …

Nachdem sich auf der Eröffnungsfeier ein ziemlich seltsamer Vorfall ereignet hat, werden kurz darauf nicht nur etliche der reichen Sponsoren entführt, auch weitere Firmenchefs verschwinden plötzlich. Hobbydetektiv Conan stellt schon bald eine Verbindung zu einem Vorfall vor 15 Jahren her: Während der World Sports Games in Boston gab es schon mal eine Reihe solcher Entführungen – und zwar mit Todesfolge. Damals war das FBI mit dem Fall betraut, und bei diesem Fall ist es nicht anders: Shuuichi Akai, ein alter Bekannter, führt die Untersuchungen durch …

Quelle: https://www.anisearch.de/anime/14687


oie_bchbujbgr3vm1-png.30596


Spieldauer: ~110min
Genre: Krimi
Nebengenres: -
Sprache:
Deutsch.png
Deutsch,
Japanisch.png
Japanisch
Untertitel:
Deutsch.png
Deutsch
Größe pro Folge: ~5230mb
Episodenanzahl: 01/01
Format: MKV
Auflösung: 1080p (16:9)
Videocodec: H264 (AVC)
Audiocodec: DTS
Releasegruppe: Flower
Hoster:
rapidgator-gif.30742
Rapidgator,
ddownload-gif.30720
ddownload


oie_bchbujbgr3vm2-png.30597

Code:
[color=Turquoise]Format                                   : Matroska
Format version                           : Version 4
File size                                : 5.23 GiB
Duration                                 : 1 h 50 min
Overall bit rate                         : 6 789 kb/s
Movie name                               : DETEKTIV CONAN 24. FILM: DIE SCHARLACHROTE KUGEL 2021  1080P Flower
Encoded date                             : UTC 2021-12-17 11:49:07
Writing application                      : mkvmerge v63.0.0 ('Everything') 64-bit
Writing library                          : libebml v1.4.2 + libmatroska v1.6.4
Kommentar                                : Der vierundzwanzigste Spielfielm der äußerst erfolgreichen Detetiv-Conan-Reihe von Gosho Aoyama. Conan in Kinoqualität - spannend, mitreißend und überraschend bis zur letzten Sekunde

Video
ID                                       : 1
Format                                   : AVC
Format/Info                              : Advanced Video Codec
Format profile                           : High@L4
Format settings                          : CABAC / 4 Ref Frames
Format settings, CABAC                   : Yes
Format settings, Reference frames        : 4 frames
Codec ID                                 : V_MPEG4/ISO/AVC
Duration                                 : 1 h 50 min
Bit rate                                 : 3 705 kb/s
Width                                    : 1 920 pixels
Height                                   : 1 080 pixels
Display aspect ratio                     : 16:9
Frame rate mode                          : Constant
Frame rate                               : 23.976 (24000/1001) FPS
Color space                              : YUV
Chroma subsampling                       : 4:2:0
Bit depth                                : 8 bits
Scan type                                : Progressive
Bits/(Pixel*Frame)                       : 0.075
Stream size                              : 2.85 GiB (55%)
Title                                    : DETEKTIV CONAN 24. FILM: DIE SCHARLACHROTE KUGEL 2021  1080P Flower
Writing library                          : x264 core 164 r3065+9 7a0e6e8 [Mod by Patman]
Encoding settings                        : cabac=1 / ref=4 / deblock=0:1:1 / analyse=0x3:0x113 / me=umh / subme=7 / psy=1 / psy_rd=0.40:0.00 / mixed_ref=1 / me_range=16 / chroma_me=1 / trellis=1 / 8x8dct=1 / cqm=0 / deadzone=21,11 / fast_pskip=1 / chroma_qp_offset=-2 / threads=6 / lookahead_threads=1 / sliced_threads=0 / nr=0 / decimate=1 / interlaced=0 / bluray_compat=0 / constrained_intra=0 / bframes=4 / b_pyramid=2 / b_adapt=1 / b_bias=0 / direct=3 / weightb=1 / open_gop=0 / weightp=2 / keyint=250 / keyint_min=23 / scenecut=40 / intra_refresh=0 / rc_lookahead=40 / rc=crf / mbtree=1 / crf=16.0 / qcomp=0.60 / qpmin=0 / qpmax=69 / qpstep=4 / vbv_maxrate=15000 / vbv_bufsize=12000 / crf_max=0.0 / nal_hrd=none / filler=0 / ip_ratio=1.40 / aq=1:0.60
Language                                 : German
Default                                  : Yes
Forced                                   : No

Audio #1
ID                                       : 2
Format                                   : DTS
Format/Info                              : Digital Theater Systems
Codec ID                                 : A_DTS
Duration                                 : 1 h 50 min
Bit rate mode                            : Constant
Bit rate                                 : 1 509 kb/s
Channel(s)                               : 6 channels
Channel layout                           : C L R Ls Rs LFE
Sampling rate                            : 48.0 kHz
Frame rate                               : 93.750 FPS (512 SPF)
Bit depth                                : 24 bits
Compression mode                         : Lossy
Stream size                              : 1.16 GiB (22%)
Title                                    : GER DTS 1509 kb/s  5.1
Language                                 : German
Default                                  : Yes
Forced                                   : Yes

Audio #2
ID                                       : 3
Format                                   : DTS
Format/Info                              : Digital Theater Systems
Codec ID                                 : A_DTS
Duration                                 : 1 h 50 min
Bit rate mode                            : Constant
Bit rate                                 : 1 509 kb/s
Channel(s)                               : 6 channels
Channel layout                           : C L R Ls Rs LFE
Sampling rate                            : 48.0 kHz
Frame rate                               : 93.750 FPS (512 SPF)
Bit depth                                : 24 bits
Compression mode                         : Lossy
Stream size                              : 1.16 GiB (22%)
Title                                    : JAP DTS 1509 kb/s  5.1
Language                                 : Japanese
Default                                  : No
Forced                                   : No

Text #1
ID                                       : 4
Format                                   : PGS
Codec ID                                 : S_HDMV/PGS
Codec ID/Info                            : Picture based subtitle format used on BDs/HD-DVDs
Duration                                 : 1 h 47 min
Bit rate                                 : 4 061 b/s
Count of elements                        : 322
Stream size                              : 3.12 MiB (0%)
Title                                    : GER FORCED PGS
Language                                 : German
Default                                  : Yes
Forced                                   : Yes

Text #2
ID                                       : 5
Format                                   : VobSub
Codec ID                                 : S_VOBSUB
Codec ID/Info                            : Picture based subtitle format used on DVDs
Duration                                 : 1 h 47 min
Bit rate                                 : 1 204 b/s
Count of elements                        : 161
Stream size                              : 947 KiB (0%)
Title                                    : GER FORCED VOB
Language                                 : German
Default                                  : No
Forced                                   : Yes

Text #3
ID                                       : 6
Format                                   : PGS
Codec ID                                 : S_HDMV/PGS
Codec ID/Info                            : Picture based subtitle format used on BDs/HD-DVDs
Duration                                 : 1 h 49 min
Bit rate                                 : 44.6 kb/s
Count of elements                        : 3588
Stream size                              : 35.1 MiB (1%)
Title                                    : GER FULL PGS
Language                                 : German
Default                                  : No
Forced                                   : No

Text #4
ID                                       : 7
Format                                   : VobSub
Codec ID                                 : S_VOBSUB
Codec ID/Info                            : Picture based subtitle format used on DVDs
Duration                                 : 1 h 49 min
Bit rate                                 : 13.3 kb/s
Count of elements                        : 1794
Stream size                              : 10.5 MiB (0%)
Title                                    : GER FULL VOB
Language                                 : German
Default                                  : No
Forced                                   : No

Menu
00:00:00.000                             : en:CHAPTER 1
00:15:11.077                             : en:INTRO
00:17:41.310                             : en:CHAPTER 2
00:35:47.395                             : en:CHAPTER 3
00:45:34.857                             : en:CHAPTER 4
00:57:15.641                             : en:CHAPTER 5
01:09:24.160                             : en:CHAPTER 6
01:17:59.758                             : en:CHAPTER 7
01:27:38.336                             : en:CHAPTER 8
01:36:23.945                             : en:CHAPTER 9
01:44:11.495                             : en:ENDING SONG
01:48:31.213                             : en:OUTRO


[/color]



oie_bchbujbgr3vm3-png.30598

cooltext396117611400625-png.30739

DDE964C2B7.png

cooltext3961176114006251-png.30741

A5FC61F338.png

To view the content, you need to Sign In or Register.

 
Zuletzt bearbeitet: