1. Die erweiterte Suche funktioniert wieder. Die LiveSearch ist vorübergehend deaktiviert

Wir verwenden Cookies, um deinen Aufenthalt auf Animes.so möglichst angenehm gestalten zu können. Mehr erfahren

Digimon Adventure tri. Chapter 5 [Ger-Jap-Dub][Ger-Sub][AAC|AC-3|DTS-HD][404p|720p|1080p][BluRay] - Fuuko

Dieses Thema im Forum "Filme (GerSub- /Dub)" wurde erstellt von Fuuko, 25. Dez. 2018.

  1. Fuuko

    Fuuko Kleiner Experte Otaku Experte

    Registriert seit:
    19. Sep. 2018
    Beiträge:
    77
    Zustimmungen:
    1.884
    Digimon Adventure tri. Chapter 5

    [​IMG]
    [​IMG]
    Meikuumon ist rasend vor Wut, als sie mitansehen muss, wie ihre Partnerin Meiko von dem mysteriösen Mann, der wie Gennai aussieht, verletzt wird.

    "Du hättest niemals geboren werden sollen ..."

    Daraufhin verschwindet Meikuumon in die reale Welt und wird zu einer Verzerrung ihrer selbst - sie besitzt zu viel unkontrollierte Macht, mit der sie das komplette Universum zerstören könnte ... Kurz darauf enthüllt Hackmon, der sich in der Zwischenzeit bei Daigo und Professor Mochizuki befindet, die ganze Wahrheit: Homestasis versucht die Harmonie der Welt zu bewahren und sieht die immer stärker werdende Meikuumon als erstzunehmende Gefahr, weshalb sie rechtzeitig gestoppt werden muss. Meikuumons Ankunft leitet den Untergang der realen Welt ein und führt zu einer Reihe von anormalen Katastrophen globalen Ausmasses. Alle Digimon, die zuvor durch die Verzerrungen in die reale Welt gelangt sind, haben nur auf diesen Startschuss gewartet ...

    Als die Digiwelt aus den Fugen gerät, sehen sich die DigiRitter gezwungen, wieder in die Menschenwelt zurückzukehren. Dort angekommen werden sie allerdings von anderen Menschen zurückgewiesen, weil diese Angst vor ihren Partnerdigimon haben. Allein und ohne Hilfe suchen sie verzweifelt nach einer Lösung für diese verfahrene Situation, während sich Meiko weiterhin abkapselt. Todunglücklich und mit einer Bürde, die zu schwer für sie allein zu tragen ist, hört sie nicht auf die Stimmen ihrer Freunde… Als wäre das nicht schon schlimm genug, wartet ein grausames Schicksal auf Kari, deren Herz reiner ist als das der anderen ...
    [​IMG]
    Film: 5 von 6
    Source: BluRay
    Release by: Fuuko
    Format: mkv
    Auflösung : 404p | 720p | 1080p
    Sprache: Deutsch | Japanisch
    Untertitel: Deutsch (Forced) | Deutsch (Full)
    Audio : AAC 5.1 | AC3 5.1 | DTS 5.1
    Spieldauer: 1h 28min
    Größe 404p: 1600MB
    Größe 720p: 3000MB
    Größe 1080p: 7400MB
    Code:
    Complete name               : Digimon.Adventure.tri.Chapter.5-Coexistence.German.AAC.DL.404p.BluRay.x264-Fuuko.mkv
    Format                      : Matroska
    Format version              : Version 4
    File size                   : 1.51 GiB
    Duration                    : 1 h 28 min
    Overall bit rate            : 2 444 kb/s
    Encoded date                : UTC 2018-11-18 15:27:26
    Writing application         : mkvmerge v10.0.0 ('To Drown In You') 64bit
    Writing library             : libebml v1.3.4 + libmatroska v1.4.5
    
    Video
    ID                          : 1
    Format                      : AVC
    Format/Info                 : Advanced Video Codec
    Format profile              : High@L4.1
    Format settings             : CABAC / 3 Ref Frames
    Format settings, CABAC      : Yes
    Format settings, ReFrames   : 3 frames
    Codec ID                    : V_MPEG4/ISO/AVC
    Duration                    : 1 h 28 min
    Bit rate                    : 1 543 kb/s
    Width                       : 720 pixels
    Height                      : 404 pixels
    Display aspect ratio        : 16:9
    Frame rate mode             : Constant
    Frame rate                  : 23.976 (24000/1001) FPS
    Color space                 : YUV
    Chroma subsampling          : 4:2:0
    Bit depth                   : 8 bits
    Scan type                   : Progressive
    Bits/(Pixel*Frame)          : 0.221
    Stream size                 : 974 MiB (63%)
    Writing library             : x264 core 148
    Encoding settings           : cabac=1 / ref=3 / deblock=1:-1:-1 / analyse=0x3:0 / me=hex / subme=5 / psy=1 / psy_rd=1.00:0.00 / mixed_ref=0 / me_range=16 / chroma_me=1 / trellis=1 / 8x8dct=1 / cqm=0 / deadzone=21,11 / fast_pskip=0 / chroma_qp_offset=0 / threads=8 / lookahead_threads=2 / sliced_threads=0 / nr=0 / decimate=1 / interlaced=0 / bluray_compat=0 / constrained_intra=0 / bframes=2 / b_pyramid=0 / b_adapt=1 / b_bias=0 / direct=1 / weightb=0 / open_gop=0 / weightp=0 / keyint=24 / keyint_min=2 / scenecut=40 / intra_refresh=0 / rc=2pass / mbtree=0 / bitrate=1543 / ratetol=1.0 / qcomp=0.60 / qpmin=0 / qpmax=69 / qpstep=4 / cplxblur=20.0 / qblur=0.5 / ip_ratio=1.40 / pb_ratio=1.30 / aq=1:1.00
    Default                     : Yes
    Forced                      : No
    Color range                 : Limited
    Color primaries             : BT.601 NTSC
    Transfer characteristics    : BT.709
    Matrix coefficients         : BT.601
    
    Audio #1
    ID                          : 2
    Format                      : AAC LC
    Format/Info                 : Advanced Audio Codec Low Complexity
    Codec ID                    : A_AAC-2
    Duration                    : 1 h 28 min
    Bit rate                    : 445 kb/s
    Channel(s)                  : 6 channels
    Channel layout              : C L R Ls Rs LFE
    Sampling rate               : 48.0 kHz
    Frame rate                  : 46.875 FPS (1024 SPF)
    Compression mode            : Lossy
    Stream size                 : 281 MiB (18%)
    Language                    : German
    Default                     : Yes
    Forced                      : No
    
    Audio #2
    ID                          : 3
    Format                      : AAC LC
    Format/Info                 : Advanced Audio Codec Low Complexity
    Codec ID                    : A_AAC-2
    Duration                    : 1 h 28 min
    Bit rate                    : 445 kb/s
    Channel(s)                  : 6 channels
    Channel layout              : C L R Ls Rs LFE
    Sampling rate               : 48.0 kHz
    Frame rate                  : 46.875 FPS (1024 SPF)
    Compression mode            : Lossy
    Stream size                 : 281 MiB (18%)
    Language                    : Japanese
    Default                     : No
    Forced                      : No
    
    Text #1
    ID                          : 4
    Format                      : PGS
    Muxing mode                 : zlib
    Codec ID                    : S_HDMV/PGS
    Codec ID/Info               : Picture based subtitle format used on BDs/HD-DVDs
    Duration                    : 34 min 55 s
    Bit rate                    : 169 b/s
    Count of elements           : 24
    Stream size                 : 43.4 KiB (0%)
    Title                       : Deutsch [Forced]
    Language                    : German
    Default                     : No
    Forced                      : No
    
    Text #2
    ID                          : 5
    Format                      : PGS
    Muxing mode                 : zlib
    Codec ID                    : S_HDMV/PGS
    Codec ID/Info               : Picture based subtitle format used on BDs/HD-DVDs
    Duration                    : 1 h 22 min
    Bit rate                    : 7 032 b/s
    Count of elements           : 2000
    Stream size                 : 4.14 MiB (0%)
    Title                       : Deutsch [Full]
    Language                    : German
    Default                     : No
    Forced                      : No
    
    Menu
    00:00:00.000                : en:(01)00:00:00:000
    00:08:46.108                : en:(02)00:08:46:108
    00:16:34.493                : en:(03)00:16:34:493
    00:24:17.622                : en:(04)00:24:17:622
    00:31:12.453                : en:(05)00:31:12:453
    00:36:01.117                : en:(06)00:36:01:117
    00:43:07.668                : en:(07)00:43:07:668
    00:50:49.129                : en:(08)00:50:49:129
    00:56:27.801                : en:(09)00:56:27:801
    01:03:48.741                : en:(10)01:03:48:741
    01:11:03.884                : en:(11)01:11:03:884
    01:17:37.944                : en:(12)01:17:37:944
    01:28:14.497                : en:(13)01:28:14:497
    Code:
    Complete name               : Digimon.Adventure.tri.Chapter.5-Coexistence.German.AC3.DL.720p.BluRay.x264-Fuuko.mkv
    Format                      : Matroska
    Format version              : Version 4
    File size                   : 2.84 GiB
    Duration                    : 1 h 28 min
    Overall bit rate            : 4 612 kb/s
    Encoded date                : UTC 2018-11-18 15:27:41
    Writing application         : mkvmerge v10.0.0 ('To Drown In You') 64bit
    Writing library             : libebml v1.3.4 + libmatroska v1.4.5
    
    Video
    ID                          : 1
    Format                      : AVC
    Format/Info                 : Advanced Video Codec
    Format profile              : High@L4.1
    Format settings             : CABAC / 3 Ref Frames
    Format settings, CABAC      : Yes
    Format settings, ReFrames   : 3 frames
    Codec ID                    : V_MPEG4/ISO/AVC
    Duration                    : 1 h 28 min
    Bit rate                    : 3 315 kb/s
    Width                       : 1 280 pixels
    Height                      : 720 pixels
    Display aspect ratio        : 16:9
    Frame rate mode             : Constant
    Frame rate                  : 23.976 (24000/1001) FPS
    Color space                 : YUV
    Chroma subsampling          : 4:2:0
    Bit depth                   : 8 bits
    Scan type                   : Progressive
    Bits/(Pixel*Frame)          : 0.150
    Stream size                 : 2.04 GiB (72%)
    Writing library             : x264 core 148
    Encoding settings           : cabac=1 / ref=3 / deblock=1:-1:-1 / analyse=0x3:0 / me=hex / subme=5 / psy=1 / psy_rd=1.00:0.00 / mixed_ref=0 / me_range=16 / chroma_me=1 / trellis=1 / 8x8dct=1 / cqm=0 / deadzone=21,11 / fast_pskip=0 / chroma_qp_offset=0 / threads=8 / lookahead_threads=2 / sliced_threads=0 / nr=0 / decimate=1 / interlaced=0 / bluray_compat=0 / constrained_intra=0 / bframes=2 / b_pyramid=0 / b_adapt=1 / b_bias=0 / direct=1 / weightb=0 / open_gop=0 / weightp=0 / keyint=24 / keyint_min=2 / scenecut=40 / intra_refresh=0 / rc=2pass / mbtree=0 / bitrate=3315 / ratetol=1.0 / qcomp=0.60 / qpmin=0 / qpmax=69 / qpstep=4 / cplxblur=20.0 / qblur=0.5 / ip_ratio=1.40 / pb_ratio=1.30 / aq=1:1.00
    Default                     : Yes
    Forced                      : No
    Color range                 : Limited
    Color primaries             : BT.709
    Transfer characteristics    : BT.709
    Matrix coefficients         : BT.709
    
    Audio #1
    ID                          : 2
    Format                      : AC-3
    Format/Info                 : Audio Coding 3
    Commercial name             : Dolby Digital
    Codec ID                    : A_AC3
    Duration                    : 1 h 28 min
    Bit rate mode               : Constant
    Bit rate                    : 640 kb/s
    Channel(s)                  : 6 channels
    Channel layout              : L R C LFE Ls Rs
    Sampling rate               : 48.0 kHz
    Frame rate                  : 31.250 FPS (1536 SPF)
    Bit depth                   : 16 bits
    Compression mode            : Lossy
    Stream size                 : 404 MiB (14%)
    Language                    : German
    Service kind                : Complete Main
    Default                     : Yes
    Forced                      : No
    
    Audio #2
    ID                          : 3
    Format                      : AC-3
    Format/Info                 : Audio Coding 3
    Commercial name             : Dolby Digital
    Codec ID                    : A_AC3
    Duration                    : 1 h 28 min
    Bit rate mode               : Constant
    Bit rate                    : 640 kb/s
    Channel(s)                  : 6 channels
    Channel layout              : L R C LFE Ls Rs
    Sampling rate               : 48.0 kHz
    Frame rate                  : 31.250 FPS (1536 SPF)
    Bit depth                   : 16 bits
    Compression mode            : Lossy
    Stream size                 : 404 MiB (14%)
    Language                    : Japanese
    Service kind                : Complete Main
    Default                     : No
    Forced                      : No
    
    Text #1
    ID                          : 4
    Format                      : PGS
    Muxing mode                 : zlib
    Codec ID                    : S_HDMV/PGS
    Codec ID/Info               : Picture based subtitle format used on BDs/HD-DVDs
    Duration                    : 34 min 55 s
    Bit rate                    : 346 b/s
    Count of elements           : 24
    Stream size                 : 88.6 KiB (0%)
    Title                       : Deutsch [Forced]
    Language                    : German
    Default                     : No
    Forced                      : No
    
    Text #2
    ID                          : 5
    Format                      : PGS
    Muxing mode                 : zlib
    Codec ID                    : S_HDMV/PGS
    Codec ID/Info               : Picture based subtitle format used on BDs/HD-DVDs
    Duration                    : 1 h 22 min
    Bit rate                    : 14.6 kb/s
    Count of elements           : 2000
    Stream size                 : 8.62 MiB (0%)
    Title                       : Deutsch [Full]
    Language                    : German
    Default                     : No
    Forced                      : No
    
    Menu
    00:00:00.000                : en:(01)00:00:00:000
    00:08:46.108                : en:(02)00:08:46:108
    00:16:34.493                : en:(03)00:16:34:493
    00:24:17.622                : en:(04)00:24:17:622
    00:31:12.453                : en:(05)00:31:12:453
    00:36:01.117                : en:(06)00:36:01:117
    00:43:07.668                : en:(07)00:43:07:668
    00:50:49.129                : en:(08)00:50:49:129
    00:56:27.801                : en:(09)00:56:27:801
    01:03:48.741                : en:(10)01:03:48:741
    01:11:03.884                : en:(11)01:11:03:884
    01:17:37.944                : en:(12)01:17:37:944
    Code:
    Complete name               :Digimon.Adventure.tri.Chapter.5-Coexistence.German.DTS.DL.1080p.BluRay.x264-Fuuko.mkv
    Format                      : Matroska
    Format version              : Version 4
    File size                   : 7.06 GiB
    Duration                    : 1 h 28 min
    Overall bit rate mode       : Variable
    Overall bit rate            : 11.5 Mb/s
    Encoded date                : UTC 2018-11-18 15:28:26
    Writing application         : mkvmerge v10.0.0 ('To Drown In You') 64bit
    Writing library             : libebml v1.3.4 + libmatroska v1.4.5
    
    Video
    ID                          : 1
    Format                      : AVC
    Format/Info                 : Advanced Video Codec
    Format profile              : High@L4.1
    Format settings             : CABAC / 3 Ref Frames
    Format settings, CABAC      : Yes
    Format settings, ReFrames   : 3 frames
    Codec ID                    : V_MPEG4/ISO/AVC
    Duration                    : 1 h 28 min
    Bit rate                    : 7 458 kb/s
    Width                       : 1 920 pixels
    Height                      : 1 080 pixels
    Display aspect ratio        : 16:9
    Frame rate mode             : Constant
    Frame rate                  : 23.976 (24000/1001) FPS
    Color space                 : YUV
    Chroma subsampling          : 4:2:0
    Bit depth                   : 8 bits
    Scan type                   : Progressive
    Bits/(Pixel*Frame)          : 0.150
    Stream size                 : 4.60 GiB (65%)
    Writing library             : x264 core 148
    Encoding settings           : cabac=1 / ref=3 / deblock=1:-1:-1 / analyse=0x3:0 / me=hex / subme=5 / psy=1 / psy_rd=1.00:0.00 / mixed_ref=0 / me_range=16 / chroma_me=1 / trellis=1 / 8x8dct=1 / cqm=0 / deadzone=21,11 / fast_pskip=0 / chroma_qp_offset=0 / threads=8 / lookahead_threads=2 / sliced_threads=0 / nr=0 / decimate=1 / interlaced=0 / bluray_compat=0 / constrained_intra=0 / bframes=2 / b_pyramid=0 / b_adapt=1 / b_bias=0 / direct=1 / weightb=0 / open_gop=0 / weightp=0 / keyint=24 / keyint_min=2 / scenecut=40 / intra_refresh=0 / rc=2pass / mbtree=0 / bitrate=7458 / ratetol=1.0 / qcomp=0.60 / qpmin=0 / qpmax=69 / qpstep=4 / cplxblur=20.0 / qblur=0.5 / ip_ratio=1.40 / pb_ratio=1.30 / aq=1:1.00
    Default                     : Yes
    Forced                      : No
    Color range                 : Limited
    Color primaries             : BT.709
    Transfer characteristics    : BT.709
    Matrix coefficients         : BT.709
    
    Audio #1
    ID                          : 2
    Format                      : DTS XLL
    Format/Info                 : Digital Theater Systems
    Commercial name             : DTS-HD Master Audio
    Codec ID                    : A_DTS
    Duration                    : 1 h 28 min
    Bit rate mode               : Variable
    Bit rate                    : 1 991 kb/s
    Channel(s)                  : 6 channels
    Channel layout              : C L R Ls Rs LFE
    Sampling rate               : 48.0 kHz
    Frame rate                  : 93.750 FPS (512 SPF)
    Bit depth                   : 16 bits
    Compression mode            : Lossless
    Stream size                 : 1.23 GiB (17%)
    Language                    : German
    Default                     : Yes
    Forced                      : No
    
    Audio #2
    ID                          : 3
    Format                      : DTS XLL
    Format/Info                 : Digital Theater Systems
    Commercial name             : DTS-HD Master Audio
    Codec ID                    : A_DTS
    Duration                    : 1 h 28 min
    Bit rate mode               : Variable
    Bit rate                    : 1 990 kb/s
    Channel(s)                  : 6 channels
    Channel layout              : C L R Ls Rs LFE
    Sampling rate               : 48.0 kHz
    Frame rate                  : 93.750 FPS (512 SPF)
    Bit depth                   : 16 bits
    Compression mode            : Lossless
    Stream size                 : 1.23 GiB (17%)
    Language                    : Japanese
    Default                     : No
    Forced                      : No
    
    Text #1
    ID                          : 4
    Format                      : PGS
    Muxing mode                 : zlib
    Codec ID                    : S_HDMV/PGS
    Codec ID/Info               : Picture based subtitle format used on BDs/HD-DVDs
    Duration                    : 34 min 55 s
    Bit rate                    : 330 b/s
    Count of elements           : 24
    Stream size                 : 84.5 KiB (0%)
    Title                       : Deutsch [Forced]
    Language                    : German
    Default                     : No
    Forced                      : No
    
    Text #2
    ID                          : 5
    Format                      : PGS
    Muxing mode                 : zlib
    Codec ID                    : S_HDMV/PGS
    Codec ID/Info               : Picture based subtitle format used on BDs/HD-DVDs
    Duration                    : 1 h 22 min
    Bit rate                    : 13.5 kb/s
    Count of elements           : 2000
    Stream size                 : 7.96 MiB (0%)
    Title                       : Deutsch [Full]
    Language                    : German
    Default                     : No
    Forced                      : No
    
    Menu
    00:00:00.000                : en:(01)00:00:00:000
    00:08:46.108                : en:(02)00:08:46:108
    00:16:34.493                : en:(03)00:16:34:493
    00:24:17.622                : en:(04)00:24:17:622
    00:31:12.453                : en:(05)00:31:12:453
    00:36:01.117                : en:(06)00:36:01:117
    00:43:07.668                : en:(07)00:43:07:668
    00:50:49.129                : en:(08)00:50:49:129
    00:56:27.801                : en:(09)00:56:27:801
    01:03:48.741                : en:(10)01:03:48:741
    01:11:03.884                : en:(11)01:11:03:884
    01:17:37.944                : en:(12)01:17:37:944
    01:28:14.497                : en:(13)01:28:14:497

    [​IMG]
    404p [​IMG]
    720p [​IMG]
    1080p [​IMG]

    Geschützter Bereich
    Registriere dich oder logge dich ein, um den Inhalt sehen zu können
     
    Zuletzt bearbeitet: 26. Dez. 2018
  2. Uploading123

    Uploading123 High Quality Anime Nolife

    Registriert seit:
    7. März 2013
    Beiträge:
    699
    Zustimmungen:
    16.116

    Digimon Adventure tri Chapter 5-Coexistence

    [​IMG]

    .:Beschreibung:.
    Der Angriff eines mysteriösen Gegner auf ihren Partner Meiko, bringt Meikuumom dazu sich zu verwandeln und die reale Welt anzugreifen. Getrennt von Meiko, macht seine ungebündelte Kraft es zu einem gefährlichen und unberechenbarem Gegner. Währenddessen grenzt sich Meiko immer weiter von den anderen DigiRittern ab und versucht ihre Sorgen alleine zu schultern. Doch nicht nur Meiko, sondern auch Kari leidet unter der Situation in beiden Welten und zweifelt die Rolle der DigiRitter an. Als Meikuumon das Ziel von Homeostasis wird, gerät die Lage völlig aus den Fugen. Werden die DigiRitter die Welt vor der Zerstörung retten können, ohne dafür einen Kameraden zurück zu lassen?

    .:Info:.
    Größe: 7232 MB
    Laufzeit: 88 Min.
    Format: .mkv
    Video Stream: BD
    Video Codec: MPEG-4 H.264 / AVC
    Audio Stream: DTS-HD MA 5.1
    Sprache/n: GER, JPN
    Untertitel: GER
    Releaser: Fuuko
    Hoster: SO, RG

    .:NFO:.
    Code:
    Format                                   : Matroska
    Format-Version                           : Version 4 / Version 2
    Dateigröße                               : 7,06 GiB
    Dauer                                    : 1 h 28 min
    Gesamte Bitrate                          : 11,5 Mb/s
    Kodierungs-Datum                         : UTC 2018-11-18 15:28:26
    Kodierendes Programm                     : mkvmerge v10.0.0 ('To Drown In You') 64bit
    verwendete Encoder-Bibliothek            : libebml v1.3.4 + libmatroska v1.4.5
    
    Video
    ID                                       : 1
    Format                                   : AVC
    Format/Info                              : Advanced Video Codec
    Format-Profil                            : High@L4.1
    Format-Einstellungen                     : CABAC / 3 Ref Frames
    Format-Einstellungen für CABAC           : Ja
    Format-Einstellungen für RefFrames       : 3 frames
    Codec-ID                                 : V_MPEG4/ISO/AVC
    Dauer                                    : 1 h 28 min
    Bitrate                                  : 7 458 kb/s
    Breite                                   : 1 920 Pixel
    Höhe                                     : 1 080 Pixel
    Bildseitenverhältnis                     : 16:9
    Modus der Bildwiederholungsrate          : konstant
    Bildwiederholungsrate                    : 23,976 (24000/1001) FPS
    ColorSpace                               : YUV
    ChromaSubsampling/String                 : 4:2:0
    BitDepth/String                          : 8 bits
    Scantyp                                  : progressiv
    Bits/(Pixel*Frame)                       : 0.150
    Stream-Größe                             : 4,60 GiB (65%)
    verwendete Encoder-Bibliothek            : x264 core 148
    Kodierungseinstellungen                  : cabac=1 / ref=3 / deblock=1:-1:-1 / analyse=0x3:0 / me=hex / subme=5 / psy=1 / psy_rd=1.00:0.00 / mixed_ref=0 / me_range=16 / chroma_me=1 / trellis=1 / 8x8dct=1 / cqm=0 / deadzone=21,11 / fast_pskip=0 / chroma_qp_offset=0 / threads=8 / lookahead_threads=2 / sliced_threads=0 / nr=0 / decimate=1 / interlaced=0 / bluray_compat=0 / constrained_intra=0 / bframes=2 / b_pyramid=0 / b_adapt=1 / b_bias=0 / direct=1 / weightb=0 / open_gop=0 / weightp=0 / keyint=24 / keyint_min=2 / scenecut=40 / intra_refresh=0 / rc=2pass / mbtree=0 / bitrate=7458 / ratetol=1.0 / qcomp=0.60 / qpmin=0 / qpmax=69 / qpstep=4 / cplxblur=20.0 / qblur=0.5 / ip_ratio=1.40 / pb_ratio=1.30 / aq=1:1.00
    Default                                  : Ja
    Forced                                   : Nein
    colour_range                             : Limited
    colour_primaries                         : BT.709
    transfer_characteristics                 : BT.709
    matrix_coefficients                      : BT.709
    
    Audio #1
    ID                                       : 2
    Format                                   : DTS
    Format/Info                              : Digital Theater Systems
    Format-Profil                            : MA / Core
    Codec-ID                                 : A_DTS
    Dauer                                    : 1 h 28 min
    Bitraten-Modus                           : variabel / konstant
    Bitrate                                  : 1 991 kb/s / 1 509 kb/s
    Kanäle                                   : 6 Kanäle
    Kanal-Positionen                         : Front: L C R, Side: L R, LFE
    Samplingrate                             : 48,0 kHz
    Bildwiederholungsrate                    : 93,750 FPS (512 SPF)
    BitDepth/String                          : 16 bits
    Compression_Mode/String                  :  / Lossy
    Stream-Größe                             : 1,23 GiB (17%)
    Sprache                                  : Deutsch
    Default                                  : Ja
    Forced                                   : Nein
    
    Audio #2
    ID                                       : 3
    Format                                   : DTS
    Format/Info                              : Digital Theater Systems
    Format-Profil                            : MA / Core
    Codec-ID                                 : A_DTS
    Dauer                                    : 1 h 28 min
    Bitraten-Modus                           : variabel / konstant
    Bitrate                                  : 1 990 kb/s / 1 509 kb/s
    Kanäle                                   : 6 Kanäle
    Kanal-Positionen                         : Front: L C R, Side: L R, LFE
    Samplingrate                             : 48,0 kHz
    Bildwiederholungsrate                    : 93,750 FPS (512 SPF)
    BitDepth/String                          : 16 bits
    Compression_Mode/String                  :  / Lossy
    Stream-Größe                             : 1,23 GiB (17%)
    Sprache                                  : Japanisch
    Default                                  : Nein
    Forced                                   : Nein
    
    Text #1
    ID                                       : 4
    Format                                   : PGS
    Muxing-Modus                             : zlib
    Codec-ID                                 : S_HDMV/PGS
    Codec-ID/Info                            : Picture based subtitle format used on BDs/HD-DVDs
    Dauer                                    : 34 min 55s
    Bitrate                                  : 330 b/s
    ElementCount                             : 24
    Stream-Größe                             : 84,5 KiB (0%)
    Titel                                    : Deutsch [Forced]
    Sprache                                  : Deutsch
    Default                                  : Nein
    Forced                                   : Nein
    
    Text #2
    ID                                       : 5
    Format                                   : PGS
    Muxing-Modus                             : zlib
    Codec-ID                                 : S_HDMV/PGS
    Codec-ID/Info                            : Picture based subtitle format used on BDs/HD-DVDs
    Dauer                                    : 1 h 22 min
    Bitrate                                  : 13,5 kb/s
    ElementCount                             : 2000
    Stream-Größe                             : 7,96 MiB (0%)
    Titel                                    : Deutsch [Full]
    Sprache                                  : Deutsch
    Default                                  : Nein
    Forced                                   : Nein
    
    Menü
    00:00:00.000                             : en:(01)00:00:00:000
    00:08:46.108                             : en:(02)00:08:46:108
    00:16:34.493                             : en:(03)00:16:34:493
    00:24:17.622                             : en:(04)00:24:17:622
    00:31:12.453                             : en:(05)00:31:12:453
    00:36:01.117                             : en:(06)00:36:01:117
    00:43:07.668                             : en:(07)00:43:07:668
    00:50:49.129                             : en:(08)00:50:49:129
    00:56:27.801                             : en:(09)00:56:27:801
    01:03:48.741                             : en:(10)01:03:48:741
    01:11:03.884                             : en:(11)01:11:03:884
    01:17:37.944                             : en:(12)01:17:37:944
    01:28:14.497                             : en:(13)01:28:14:497
    
    


    Mirrors kompatibel

    .:Share-online.biz:. [​IMG]
    Geschützter Bereich
    Registriere dich oder logge dich ein, um den Inhalt sehen zu können
    .:Rapidgator.net:. [​IMG]
    Geschützter Bereich
    Registriere dich oder logge dich ein, um den Inhalt sehen zu können
     
    dosde, MajoraSO und zimbo201174 gefällt das.