Dog & Scissors [Laufend][Ger-Dub][Ger-Sub][1080p][x264][WebRip] - AoD

Kleinmike

Premium Spender
Premium
Uploader
Otaku König
Beiträge
196
Reaktionspunkte
2.413
Punkte
93
Dog & Scissors
犬とハサミは使いよう

8328.webp


Beschreibung:
Die absurde Mystery-Komödie handelt von dem Highschool-Schüler Kazuhito, der regelrecht süchtig nach Büchern ist. Eines Tages wird er während eines Raubüberfalls getötet – und als Dackel wiedergeboren. Unfähig, in seiner jetzigen Form zu lesen, gehört der unglückliche Kazuhito nun Kirihime Natsuno, eine sadistische Autorin, welche Scheren benutzt, um ihn zu missbrauchen.
Quelle: aniSearch


Folgen: 06/12
Größe pro Folge: ~2000 MB
Sprache: Deutsch
Untertitel: Deutsch
Jahr: 2021
Genres: Komödie, Ecchi, Harem, Mystery
Auflösung: 1920x1080
Format: MKV
Videocodec: H264
Farbtiefe: 8bit
Audiocodec: AAC
Publisher: Kazé Deutschland
Hoster: DDownload | Uploaded

Mediainfo:
Code:
General
Complete name                            : Dogs&Scissors.S01.E01.German.1080p.x264.WebRip.Kleinmike.mkv
Format                                   : MPEG-4
Format profile                           : Base Media
Codec ID                                 : isom (isom/iso2/avc1/mp41)
File size                                : 2.30 GiB
Duration                                 : 23 min 41 s
Overall bit rate                         : 13.9 Mb/s
Writing application                      : Lavf58.27.103
FileExtension_Invalid                    : braw mov mp4 m4v m4a m4b m4p m4r 3ga 3gpa 3gpp 3gp 3gpp2 3g2 k3g jpm jpx mqv ismv isma ismt f4a f4b f4v

Video
ID                                       : 1
Format                                   : AVC
Format/Info                              : Advanced Video Codec
Format profile                           : [email protected]
Format settings                          : CABAC / 12 Ref Frames
Format settings, CABAC                   : Yes
Format settings, Reference frames        : 12 frames
Codec ID                                 : avc1
Codec ID/Info                            : Advanced Video Coding
Duration                                 : 23 min 41 s
Bit rate                                 : 13.6 Mb/s
Width                                    : 1 920 pixels
Height                                   : 1 080 pixels
Display aspect ratio                     : 16:9
Frame rate mode                          : Variable
Frame rate                               : 23.976 (24000/1001) FPS
Minimum frame rate                       : 23.974 FPS
Maximum frame rate                       : 23.981 FPS
Color space                              : YUV
Chroma subsampling                       : 4:2:0
Bit depth                                : 8 bits
Scan type                                : Progressive
Bits/(Pixel*Frame)                       : 0.274
Stream size                              : 2.26 GiB (98%)
Writing library                          : x264 core 161 r3053 c347e7a
Encoding settings                        : cabac=1 / ref=12 / deblock=1:0:-1 / analyse=0x3:0x133 / me=umh / subme=10 / psy=1 / psy_rd=0.70:0.15 / mixed_ref=1 / me_range=24 / chroma_me=1 / trellis=2 / 8x8dct=1 / cqm=0 / deadzone=21,11 / fast_pskip=1 / chroma_qp_offset=-3 / threads=24 / lookahead_threads=6 / sliced_threads=0 / nr=0 / decimate=0 / interlaced=0 / bluray_compat=0 / constrained_intra=0 / bframes=16 / b_pyramid=2 / b_adapt=2 / b_bias=0 / direct=3 / weightb=1 / open_gop=0 / weightp=2 / keyint=192 / keyint_min=19 / scenecut=0 / intra_refresh=0 / rc_lookahead=80 / rc=crf / mbtree=1 / crf=15.0 / qcomp=0.60 / qpmin=0 / qpmax=69 / qpstep=4 / vbv_maxrate=20480 / vbv_bufsize=40960 / crf_max=0.0 / nal_hrd=none / filler=0 / ip_ratio=1.40 / aq=3:1.10
Codec configuration box                  : avcC

Audio
ID                                       : 2
Format                                   : AAC LC
Format/Info                              : Advanced Audio Codec Low Complexity
Codec ID                                 : mp4a-40-2
Duration                                 : 23 min 41 s
Bit rate mode                            : Constant
Bit rate                                 : 256 kb/s
Channel(s)                               : 2 channels
Channel layout                           : L R
Sampling rate                            : 48.0 kHz
Frame rate                               : 46.875 FPS (1024 SPF)
Compression mode                         : Lossy
Stream size                              : 43.4 MiB (2%)
Default                                  : Yes
Alternate group                          : 1

Status:
1080p:
6BEEC75933.png



To view the content, you need to Sign In or Register.


 
Zuletzt bearbeitet:

Kleinmike

Premium Spender
Premium
Uploader
Otaku König
Beiträge
196
Reaktionspunkte
2.413
Punkte
93
Folge 6 ist Online.
Viel Spaß <3
 
Oben