1. Die erweiterte Suche funktioniert wieder. Die LiveSearch ist vorübergehend deaktiviert

Wir verwenden Cookies, um deinen Aufenthalt auf Animes.so möglichst angenehm gestalten zu können. Mehr erfahren

Dororo [Jap-Dub][Ger-Eng-Sub][720p|1080p][WebRip] - Amazon

Dieses Thema im Forum "Serien (GerSub)" wurde erstellt von Ta@, 21. Jan. 2019.

  1. Ta@

    Ta@ Treues Mitglied Seelenverkäufer

    Registriert seit:
    7. Juli 2016
    Beiträge:
    427
    Zustimmungen:
    18.074
    Dororo (2019)
    Dororo
    Dororo to Hyakkimaru

    [​IMG]
    [​IMG]

    Als es durch Krieg und Seuchen schlecht um seinen Einflussbereich steht, schwört Daigo Kagemitsu, Burgherr und Vasall des Feudalherren der Provinz Kaga, dem Buddhismus ab und betet stattdessen zwölf Dämonen an, ihm Macht zu verleihen, was es auch kosten mag. Bei der Geburt seines Sohnes stellt sich heraus, welchen Preis er für sein Bitten bezahlen musste, denn dieser kommt verstümmelt, ohne Gliedmaßen, Haut oder Augen zur Welt. Berauscht davon, die Dämonen nun auf seiner Seite zu wissen, lässt Daigo den Säugling in einen Fluss werfen.

    Sechzehn Jahre später trifft ein elternloses Kind namens Dororo, das sich mit verschiedenen Gaunereien über Wasser hält, bei seiner Flucht vor ein paar Ganoven auf einen jungen Mann in zerlumpten Kleidern, der eine Maske und Prothesen anstelle seiner Gliedmaßen trägt. Als unvermittelt ein in Schlamm gehüllter Dämon aus einem nahe gelegenen Fluss aufsteigt und Dororos Verfolger verschlingt, besiegt der Maskierte das Wesen trotz seines Handicaps scheinbar mit Leichtigkeit. Begeistert von den Fähigkeiten des Unbekannten beschließt Dororo, diesen auf seiner Reise zu begleiten …

    Folgen: 16/24
    Größe pro Folge: ~300 MB/~600 MB
    Folgendauer: ~24 Min
    Releaser: Ta@
    Art: Lizenzrelease
    Sprache: Japanisch
    Untertitel: Deutsch, Englisch
    Jahr: 2019
    Genres: Abenteuer, Action, Drama, Fantasy
    Auflösung: 1280x720/1920x1080
    Format: MKV
    Quelle: WebRip
    Videocodec: x264
    Farbtiefe: 8Bit
    Audiocodec: AC3
    Publisher: Amazon
    Hoster: Share-Online

    [​IMG]
    Code:
    General Complete name : [Ta@]Dororo_01_[Web,720p,AC3].mkv Format : Matroska Format version : Version 4 File size : 289 MiB Duration : 24 min 0 s Overall bit rate : 1 681 kb/s Encoded date : UTC 2019-01-07 16:51:12 Writing application : mkvmerge v10.0.0 ('To Drown In You') 64bit Writing library : libebml v1.3.4 + libmatroska v1.4.5 Attachments : lt.ttf Video ID : 1 Format : AVC Format/Info : Advanced Video Codec Format profile : High@L3.1 Format settings : CABAC / 5 Ref Frames Format settings, CABAC : Yes Format settings, RefFrames : 5 frames Codec ID : V_MPEG4/ISO/AVC Duration : 23 min 59 s Bit rate : 1 455 kb/s Width : 1 280 pixels Height : 720 pixels Display aspect ratio : 16:9 Frame rate mode : Constant Frame rate : 23.976 (24000/1001) FPS Color space : YUV Chroma subsampling : 4:2:0 Bit depth : 8 bits Scan type : Progressive Bits/(Pixel*Frame) : 0.066 Stream size : 250 MiB (87%) Default : Yes Forced : No Color range : Limited Color primaries : BT.709 Transfer characteristics : BT.709 Matrix coefficients : BT.709 Audio ID : 2 Format : E-AC-3 Format/Info : Enhanced AC-3 Commercial name : Dolby Digital Plus Codec ID : A_EAC3 Duration : 23 min 59 s Bit rate mode : Constant Bit rate : 224 kb/s Channel(s) : 2 channels Channel layout : L R Sampling rate : 48.0 kHz Frame rate : 31.250 FPS (1536 SPF) Compression mode : Lossy Stream size : 38.5 MiB (13%) Service kind : Complete Main Default : Yes Forced : No Text ID : 3 Format : ASS Codec ID : S_TEXT/ASS Codec ID/Info : Advanced Sub Station Alpha Duration : 23 min 29 s Bit rate : 81 b/s Count of elements : 258 Compression mode : Lossless Stream size : 14.1 KiB (0%) Default : Yes Forced : No ​
    Code:
    General Complete name : [Ta@]Dororo_01_[Web,1080p,AC3].mkv Format : Matroska Format version : Version 4 File size : 612 MiB Duration : 24 min 0 s Overall bit rate : 3 567 kb/s Encoded date : UTC 2019-01-07 16:51:18 Writing application : mkvmerge v10.0.0 ('To Drown In You') 64bit Writing library : libebml v1.3.4 + libmatroska v1.4.5 Attachments : lt.ttf Video ID : 1 Format : AVC Format/Info : Advanced Video Codec Format profile : High@L4 Format settings : CABAC / 4 Ref Frames Format settings, CABAC : Yes Format settings, RefFrames : 4 frames Codec ID : V_MPEG4/ISO/AVC Duration : 23 min 59 s Bit rate : 3 341 kb/s Width : 1 920 pixels Height : 1 080 pixels Display aspect ratio : 16:9 Frame rate mode : Constant Frame rate : 23.976 (24000/1001) FPS Color space : YUV Chroma subsampling : 4:2:0 Bit depth : 8 bits Scan type : Progressive Bits/(Pixel*Frame) : 0.067 Stream size : 573 MiB (94%) Default : Yes Forced : No Color range : Limited Color primaries : BT.709 Transfer characteristics : BT.709 Matrix coefficients : BT.709 Audio ID : 2 Format : E-AC-3 Format/Info : Enhanced AC-3 Commercial name : Dolby Digital Plus Codec ID : A_EAC3 Duration : 23 min 59 s Bit rate mode : Constant Bit rate : 224 kb/s Channel(s) : 2 channels Channel layout : L R Sampling rate : 48.0 kHz Frame rate : 31.250 FPS (1536 SPF) Compression mode : Lossy Stream size : 38.5 MiB (6%) Service kind : Complete Main Default : Yes Forced : No Text ID : 3 Format : ASS Codec ID : S_TEXT/ASS Codec ID/Info : Advanced Sub Station Alpha Duration : 23 min 29 s Bit rate : 81 b/s Count of elements : 258 Compression mode : Lossless Stream size : 14.1 KiB (0%) Default : Yes Forced : No ​
    Code:

    Anmerkung:
    Ich habe das Timing verbessert und die Font gefixt.

    720p:[​IMG]1080p:[​IMG]

    Geschützter Bereich
    Registriere dich oder logge dich ein, um den Inhalt sehen zu können
     
    Zuletzt bearbeitet: 2. Mai 2019
    Gelex, Nerve, vegito1990 und 61 anderen gefällt das.
  2. Tomoya

    Tomoya Kleiner Experte Otaku Experte

    Registriert seit:
    16. Juni 2013
    Beiträge:
    77
    Zustimmungen:
    996
    Dororo | どろろ

    [​IMG]

    [​IMG]
    Als es durch Krieg und Seuchen schlecht um seinen Einflussbereich steht, schwört Daigo Kagemitsu, Burgherr und Vasall des Feudalherren der Provinz Kaga, dem Buddhismus ab und betet stattdessen zwölf Dämonen an, ihm Macht zu verleihen, was es auch kosten mag. Bei der Geburt seines Sohnes stellt sich heraus, welchen Preis er für sein Bitten bezahlen musste, denn dieser kommt verstümmelt, ohne Gliedmaßen, Haut oder Augen zur Welt. Berauscht davon, die Dämonen nun auf seiner Seite zu wissen, lässt Daigo den Säugling in einen Fluss werfen.

    Sechzehn Jahre später trifft ein elternloses Kind namens Dororo, das sich mit verschiedenen Gaunereien über Wasser hält, bei seiner Flucht vor ein paar Ganoven auf einen jungen Mann in zerlumpten Kleidern, der eine Maske und Prothesen anstelle seiner Gliedmaßen trägt. Als unvermittelt ein in Schlamm gehüllter Dämon aus einem nahe gelegenen Fluss aufsteigt und Dororos Verfolger verschlingt, besiegt der Maskierte das Wesen trotz seines Handicaps scheinbar mit Leichtigkeit. Begeistert von den Fähigkeiten des Unbekannten beschließt Dororo, diesen auf seiner Reise zu begleiten


    Sprache: Japanisch
    Untertitel: Deutsch
    Episoden: 24/24
    Auflösung: 1920x1080p

    Dauer pro Folge: 24 Minuten
    Genres: Abenteuer, Action, Drama, Fantasy
    Jahr: 2019

    Format: MKV
    Quelle: WebRip
    Videocodec: H.264
    Audiocodec: AC3
    Größe pro Folge: ca. 600MB

    Releasegruppe: Amazon | Ta@
    Hoster: Share-Online

    [​IMG]
    General
    Complete name : [Ta@]Dororo_01-19_[Web,1080p,AC3]\[Ta@]Dororo_01_[Web,1080p,AC3].mkv
    Format : Matroska
    Format version : Version 4
    File size : 612 MiB
    Duration : 24 min 0 s
    Overall bit rate : 3 567 kb/s
    Encoded date : UTC 2019-01-07 16:51:18
    Writing application : mkvmerge v10.0.0 ('To Drown In You') 64bit
    Writing library : libebml v1.3.4 + libmatroska v1.4.5
    Attachments : lt.ttf

    Video
    ID : 1
    Format : AVC
    Format/Info : Advanced Video Codec
    Format profile : High@L4
    Format settings : CABAC / 4 Ref Frames
    Format settings, CABAC : Yes
    Format settings, Reference : 4 frames
    Codec ID : V_MPEG4/ISO/AVC
    Duration : 23 min 59 s
    Bit rate : 3 341 kb/s
    Width : 1 920 pixels
    Height : 1 080 pixels
    Display aspect ratio : 16:9
    Frame rate mode : Constant
    Frame rate : 23.976 (24000/1001) FPS
    Color space : YUV
    Chroma subsampling : 4:2:0
    Bit depth : 8 bits
    Scan type : Progressive
    Bits/(Pixel*Frame) : 0.067
    Stream size : 573 MiB (94%)
    Default : Yes
    Forced : No
    Color range : Limited
    Color primaries : BT.709
    Transfer characteristics : BT.709
    Matrix coefficients : BT.709

    Audio
    ID : 2
    Format : E-AC-3
    Format/Info : Enhanced AC-3
    Commercial name : Dolby Digital Plus
    Codec ID : A_EAC3
    Duration : 23 min 59 s
    Bit rate mode : Constant
    Bit rate : 224 kb/s
    Channel(s) : 2 channels
    Channel layout : L R
    Sampling rate : 48.0 kHz
    Frame rate : 31.250 FPS (1536 SPF)
    Compression mode : Lossy
    Stream size : 38.5 MiB (6%)
    Service kind : Complete Main
    Default : Yes
    Forced : No

    Text
    ID : 3
    Format : ASS
    Codec ID : S_TEXT/ASS
    Codec ID/Info : Advanced Sub Station Alpha
    Duration : 23 min 29 s
    Bit rate : 81 b/s
    Count of elements : 258
    Compression mode : Lossless
    Stream size : 14.1 KiB (0%)
    Default : Yes
    Forced : No





    Hinweiß: Der Releaser aller vorhanden Folgen meines hier bereitgestellten Uploads ist Ta@,
    der Episodentitel wurde von mir geändert weil ich die Formatirung so bei mir nutze, und [TSP] wurde hinzugefügt um sie bei mir als Uploads zu deklarieren.
    Alle neue Folgen werden nicht mehr dieses Kürzel tragen wenn sie nicht von mir kommen.

    Status: 1080p [​IMG]

    Geschützter Bereich
    Registriere dich oder logge dich ein, um den Inhalt sehen zu können
     
    Zuletzt bearbeitet: 6. Juli 2019
    RaienryuuRgr, kutschi, Akazuna und 39 anderen gefällt das.
  3. Tomoya

    Tomoya Kleiner Experte Otaku Experte

    Registriert seit:
    16. Juni 2013
    Beiträge:
    77
    Zustimmungen:
    996
    So Folgen 21-24 nun auch Online
    ~Der Anime ist mit Folge 24 abgeschlossen~