Welcome to our Community
Wanting to join the rest of our members? Feel free to sign up today.
Sign up

Evangelion 1.11 - You Are (Not) Alone [Jap-Ger-Dub][Ger-Sub][DTS-HD | EAC3][1080p][AV1][10bit][BluRay] - Kleinmike

Kleinmike

Uploader
Otaku König
21 März 2021
284
4.716
93
Evangelion: 1.11 - You Are (Not) Alone.
ヱヴァンゲリヲン新劇場版:序 | Evangelion Shin Gekijouban: Jo

3879.webp


Beschreibung:
15 Jahre sind nach dem ersten Angriff der Engel vergangen und die Menschheit wird erneut attackiert. Dieses Mal sind sie jedoch darauf vorbereitet und so befindet sich der Junge Shinji Ikari bereits auf dem Weg ins NERV-Hauptquartier, um von dort aus mit einer biomechanischen Kampfmaschine, einem sogenannten Evangelion, gegen den Eindringling zu kämpfen. Ihm zur Seite stehen seine Einsatzleiterin und Vormund Misato Katsuragi und die EVA-Pilotin Rei Ayanami. Es beginnt ein Kampf um das Überleben der Menschheit.

Anmerkung:
Bei diesem Titel handelt es sich um ein Remake der Serie »Neon Genesis Evangelion«, das die ersten sechs Episoden umfasst. Die Geschichte wurde komplett aus dem Original übernommen und lediglich in einigen Szenen geändert; dennoch sind dieser Titel und seine Sequels trotz der Parallelen zur Originalserie in erster Linie als eigenständige Werke zu betrachten.

Die Kinofassung, die unter dem Titel »1.0« erschien, hat eine Laufzeit von 98 Minuten. Sieben Monate später kam der Film in einer überarbeiteten Fassung erneut in die japanischen Kinos, diesmal unter dem Namen »1.01«. Diese Version wurde in Deutschland dann auch unter demselben Namen von LEONINE Anime auf DVD veröffentlicht. Im Mai 2009 erschien in Japan einer abermals überarbeitete Version unter dem Titel »1.11« mit einer Laufzeit von 101 Minuten auf DVD und Blu-ray. Über ein Jahr später erschien diese Fassung auch in Deutschland auf Blu-ray.
Quelle: anisearch

Größe: ~5.9GB, ~3.27GB
Sprache: Japanisch | Deutsch
Untertitel: Deutsch
Jahr: 2009
Genres: Actiondrama, Mecha, Mystery, Psychodrama, SciFi, Übermäßige Gewaltdarstellung
Auflösung: 1920x1080
Format: MKV
Videocodec: AV1
Farbtiefe: 10bit
Audiocodec: DTS-HD | EAC3
Releaser: Kleinmike
Publisher: LEONINE Anime
Hoster: DDownload | Uploaded

Mediainfo:
Code:
Format                                   : Matroska
Format version                           : Version 4
File size                                : 5.90 GiB
Duration                                 : 1 h 40 min
Overall bit rate mode                    : Variable
Overall bit rate                         : 8 368 kb/s
Encoded date                             : UTC 2022-04-17 13:59:40
Writing application                      : mkvmerge v65.0.0 ('Too Much') 64-bit
Writing library                          : libebml v1.4.2 + libmatroska v1.6.4 / Lavf59.20.101

Video
ID                                       : 1
Format                                   : AV1
Format/Info                              : AOMedia Video 1
Format profile                           : [email protected]
Codec ID                                 : V_AV1
Duration                                 : 1 h 40 min
Bit rate                                 : 3 606 kb/s
Width                                    : 1 920 pixels
Height                                   : 1 080 pixels
Display aspect ratio                     : 16:9
Frame rate mode                          : Constant
Frame rate                               : 23.976 (24000/1001) FPS
Color space                              : YUV
Chroma subsampling                       : 4:2:0
Bit depth                                : 10 bits
Bits/(Pixel*Frame)                       : 0.073
Stream size                              : 2.54 GiB (43%)
Default                                  : Yes
Forced                                   : No
Color range                              : Limited

Audio #1
ID                                       : 2
Format                                   : DTS XLL
Format/Info                              : Digital Theater Systems
Commercial name                          : DTS-HD Master Audio
Codec ID                                 : A_DTS
Duration                                 : 1 h 40 min
Bit rate mode                            : Variable
Bit rate                                 : 2 364 kb/s
Channel(s)                               : 6 channels
Channel layout                           : C L R Ls Rs LFE
Sampling rate                            : 48.0 kHz
Frame rate                               : 93.750 FPS (512 SPF)
Bit depth                                : 16 bits
Compression mode                         : Lossless
Stream size                              : 1.67 GiB (28%)
Language                                 : German
Default                                  : Yes
Forced                                   : No

Audio #2
ID                                       : 3
Format                                   : DTS XLL
Format/Info                              : Digital Theater Systems
Commercial name                          : DTS-HD Master Audio
Codec ID                                 : A_DTS
Duration                                 : 1 h 40 min
Bit rate mode                            : Variable
Bit rate                                 : 2 382 kb/s
Channel(s)                               : 6 channels
Channel layout                           : C L R Ls Rs LFE
Sampling rate                            : 48.0 kHz
Frame rate                               : 93.750 FPS (512 SPF)
Bit depth                                : 16 bits
Compression mode                         : Lossless
Stream size                              : 1.68 GiB (28%)
Language                                 : Japanese
Default                                  : No
Forced                                   : No

Text #1
ID                                       : 4
Format                                   : PGS
Muxing mode                              : zlib
Codec ID                                 : S_HDMV/PGS
Codec ID/Info                            : Picture based subtitle format used on BDs/HD-DVDs
Duration                                 : 1 h 40 min
Bit rate                                 : 40.6 kb/s
Count of elements                        : 2155
Stream size                              : 29.1 MiB (0%)
Language                                 : German
Default                                  : No
Forced                                   : No

Text #2
ID                                       : 5
Format                                   : PGS
Muxing mode                              : zlib
Codec ID                                 : S_HDMV/PGS
Codec ID/Info                            : Picture based subtitle format used on BDs/HD-DVDs
Duration                                 : 1 h 34 min
Bit rate                                 : 845 b/s
Count of elements                        : 43
Stream size                              : 587 KiB (0%)
Language                                 : German
Default                                  : No
Forced                                   : No

Text #3
ID                                       : 6
Format                                   : PGS
Muxing mode                              : zlib
Codec ID                                 : S_HDMV/PGS
Codec ID/Info                            : Picture based subtitle format used on BDs/HD-DVDs
Duration                                 : 1 h 34 min
Bit rate                                 : 845 b/s
Count of elements                        : 43
Stream size                              : 587 KiB (0%)
Language                                 : German
Default                                  : No
Forced                                   : No

Menu #1
00:00:00.000                             : 00:00:00.000
00:06:44.862                             : 00:06:44.862
00:14:28.576                             : 00:14:28.576
00:25:57.847                             : 00:25:57.847
00:38:01.779                             : 00:38:01.779
00:51:52.484                             : 00:51:52.484
01:03:16.292                             : 01:03:16.292
01:18:52.477                             : 01:18:52.477
01:35:21.882                             : 01:35:21.882
Code:
Format                                   : Matroska
Format version                           : Version 4
File size                                : 3.28 GiB
Duration                                 : 1 h 40 min
Overall bit rate                         : 4 643 kb/s
Encoded date                             : UTC 2022-04-17 23:26:42
Writing application                      : mkvmerge v59.0.0 ('Shining Star') 64-bit
Writing library                          : libebml v1.4.2 + libmatroska v1.6.4 / Lavf59.20.101

Video
ID                                       : 1
Format                                   : AV1
Format/Info                              : AOMedia Video 1
Format profile                           : [email protected]
Codec ID                                 : V_AV1
Duration                                 : 1 h 40 min
Bit rate                                 : 3 606 kb/s
Width                                    : 1 920 pixels
Height                                   : 1 080 pixels
Display aspect ratio                     : 16:9
Frame rate mode                          : Constant
Frame rate                               : 23.976 (24000/1001) FPS
Color space                              : YUV
Chroma subsampling                       : 4:2:0
Bit depth                                : 10 bits
Bits/(Pixel*Frame)                       : 0.073
Stream size                              : 2.54 GiB (78%)
Default                                  : Yes
Forced                                   : No
Color range                              : Limited

Audio #1
ID                                       : 2
Format                                   : E-AC-3
Format/Info                              : Enhanced AC-3
Commercial name                          : Dolby Digital Plus
Codec ID                                 : A_EAC3
Duration                                 : 1 h 40 min
Bit rate mode                            : Constant
Bit rate                                 : 512 kb/s
Channel(s)                               : 6 channels
Channel layout                           : L R C LFE Ls Rs
Sampling rate                            : 48.0 kHz
Frame rate                               : 31.250 FPS (1536 SPF)
Compression mode                         : Lossy
Stream size                              : 370 MiB (11%)
Language                                 : German
Service kind                             : Complete Main
Default                                  : Yes
Forced                                   : No

Audio #2
ID                                       : 3
Format                                   : E-AC-3
Format/Info                              : Enhanced AC-3
Commercial name                          : Dolby Digital Plus
Codec ID                                 : A_EAC3
Duration                                 : 1 h 40 min
Bit rate mode                            : Constant
Bit rate                                 : 512 kb/s
Channel(s)                               : 6 channels
Channel layout                           : L R C LFE Ls Rs
Sampling rate                            : 48.0 kHz
Frame rate                               : 31.250 FPS (1536 SPF)
Compression mode                         : Lossy
Stream size                              : 370 MiB (11%)
Language                                 : Japanese
Service kind                             : Complete Main
Default                                  : Yes
Forced                                   : No

Text #1
ID                                       : 4
Format                                   : PGS
Muxing mode                              : zlib
Codec ID                                 : S_HDMV/PGS
Codec ID/Info                            : Picture based subtitle format used on BDs/HD-DVDs
Duration                                 : 1 h 40 min
Bit rate                                 : 40.6 kb/s
Count of elements                        : 2155
Stream size                              : 29.1 MiB (1%)
Language                                 : German
Default                                  : No
Forced                                   : No

Text #2
ID                                       : 5
Format                                   : PGS
Muxing mode                              : zlib
Codec ID                                 : S_HDMV/PGS
Codec ID/Info                            : Picture based subtitle format used on BDs/HD-DVDs
Duration                                 : 1 h 34 min
Bit rate                                 : 845 b/s
Count of elements                        : 43
Stream size                              : 587 KiB (0%)
Language                                 : German
Default                                  : No
Forced                                   : No

Text #3
ID                                       : 6
Format                                   : PGS
Muxing mode                              : zlib
Codec ID                                 : S_HDMV/PGS
Codec ID/Info                            : Picture based subtitle format used on BDs/HD-DVDs
Duration                                 : 1 h 34 min
Bit rate                                 : 845 b/s
Count of elements                        : 43
Stream size                              : 587 KiB (0%)
Language                                 : German
Default                                  : No
Forced                                   : No

Menu #1
00:00:00.000                             : 00:00:00.000
00:06:44.862                             : 00:06:44.862
00:14:28.576                             : 00:14:28.576
00:25:57.847                             : 00:25:57.847
00:38:01.779                             : 00:38:01.779
00:51:52.484                             : 00:51:52.484
01:03:16.292                             : 01:03:16.292
01:18:52.477                             : 01:18:52.477
01:35:21.882                             : 01:35:21.882
Status:
1080p DTS-HD:
9BB37A5606.png

1080p EAC3:
553F83D9B8.png

To view the content, you need to Sign In or Register.
 
Zuletzt bearbeitet: