Welcome to our Community
Wanting to join the rest of our members? Feel free to sign up today.
Sign up

Evangelion 2.22 - You Can (Not) Advance [Jap-Ger-Dub][Ger-Sub][DTS-HD | EAC3][1080p][AV1][10bit][BluRay] - Kleinmike

Kleinmike

Uploader
Otaku König
21 März 2021
279
4.426
93
Evangelion: 2.22 - You Can (Not) Advance.
ヱヴァンゲリヲン新劇場版:破 | Evangelion Shin Gekijouban: Ha

4678.webp


Beschreibung:
Die Engel sind noch nicht besiegt, aber zum Glück kann NERV mit Verstärkung rechnen: Die beiden EVA-Pilotinnen Asuka und Mari unterstützen von nun an Shinji und Rei im Kampf gegen die Engel um das Überleben der Menschheit. Doch scheinen Letztere nicht die einzigen Widersacher zu sein, mit denen sich NERV auseinandersetzen muss. Denn eine weitere mysteriöse Geheimorganisation namens SEELE scheint an einem Projekt zu arbeiten, das den sogenannten Third Impact herbeiführen könnte, ein Geschehnis, das die Figuren eigentlich um jeden Preis verhindern wollen; denn sollte sich jener ereignen, würde sich das Leben auf der Erde abermals nachhaltig verändern.

Anmerkung:
»Evangelion: 2.22 - You Can (Not) Advance.« setzt direkt am Ende des Vorgängerfilms »Evangelion Shin Gekijouban: Jo« an und führt die Story fort. Wie auch im ersten Teil griffen die Regisseure auf Elemente der Serie »Shinseiki Evangelion« zurück – man hielt sich jedoch weniger stark an die Vorlage, sodass Änderungen enthalten sind, die nicht der Serie entsprechen und der Film somit den Weg für einen alternativen Handlungsstrang ebnet.

Die japanische Kinofassung erschien unter dem Titel „2.0“ und hat eine Laufzeit von 108 Minuten. Fast ein Jahr später erschien eine überarbeitete Fassung mit dem Titel „2.22“ auf DVD und Blu-ray in Japan. Diese Fassung hat eine Laufzeit von 112 Minuten und wurde später auch in Deutschland auf DVD und Blu-ray veröffentlicht.
Quelle: anisearch


Größe: 6.81GB | 3.75GB
Sprache: Japanisch | Deutsch
Untertitel: Deutsch
Jahr: 2010
Genres: Actiondrama, Mecha, Mystery, Psychodrama, Scifi, Übermäßige Gewaltdarstellung
Auflösung: 1920x1080
Format: MKV
Videocodec: AV1
Farbtiefe: 10bit
Audiocodec: DTS-HD | EAC3
Release: Kleinmike
Publisher: LEONINE Anime
Hoster: DDownload | Uploaded

Mediainfo:
Code:
Format                                   : Matroska
Format version                           : Version 4
File size                                : 6.81 GiB
Duration                                 : 1 h 52 min
Overall bit rate mode                    : Variable
Overall bit rate                         : 8 695 kb/s
Encoded date                             : UTC 2022-04-18 04:41:41
Writing application                      : mkvmerge v65.0.0 ('Too Much') 64-bit
Writing library                          : libebml v1.4.2 + libmatroska v1.6.4 / Lavf59.20.101

Video
ID                                       : 1
Format                                   : AV1
Format/Info                              : AOMedia Video 1
Format profile                           : [email protected]
Codec ID                                 : V_AV1
Duration                                 : 1 h 52 min
Bit rate                                 : 3 760 kb/s
Width                                    : 1 920 pixels
Height                                   : 1 080 pixels
Display aspect ratio                     : 16:9
Frame rate mode                          : Constant
Frame rate                               : 23.976 (24000/1001) FPS
Color space                              : YUV
Chroma subsampling                       : 4:2:0
Bit depth                                : 10 bits
Bits/(Pixel*Frame)                       : 0.076
Stream size                              : 2.95 GiB (43%)
Default                                  : Yes
Forced                                   : No
Color range                              : Limited

Audio #1
ID                                       : 2
Format                                   : DTS ES XXCH XLL
Format/Info                              : Digital Theater Systems
Commercial name                          : DTS-HD Master Audio
Codec ID                                 : A_DTS
Duration                                 : 1 h 52 min
Bit rate mode                            : Variable
Bit rate                                 : 2 474 kb/s
Channel(s)                               : 7 channels
Channel layout                           : C L R Ls Rs LFE Cb
Sampling rate                            : 48.0 kHz
Frame rate                               : 93.750 FPS (512 SPF)
Bit depth                                : 16 bits
Compression mode                         : Lossless
Stream size                              : 1.94 GiB (28%)
Language                                 : German
Default                                  : Yes
Forced                                   : No

Audio #2
ID                                       : 3
Format                                   : DTS ES XXCH XLL
Format/Info                              : Digital Theater Systems
Commercial name                          : DTS-HD Master Audio
Codec ID                                 : A_DTS
Duration                                 : 1 h 52 min
Bit rate mode                            : Variable
Bit rate                                 : 2 443 kb/s
Channel(s)                               : 7 channels
Channel layout                           : C L R Ls Rs LFE Cb
Sampling rate                            : 48.0 kHz
Frame rate                               : 93.750 FPS (512 SPF)
Bit depth                                : 16 bits
Compression mode                         : Lossless
Stream size                              : 1.91 GiB (28%)
Language                                 : Japanese
Default                                  : No
Forced                                   : No

Text #1
ID                                       : 4
Format                                   : PGS
Muxing mode                              : zlib
Codec ID                                 : S_HDMV/PGS
Codec ID/Info                            : Picture based subtitle format used on BDs/HD-DVDs
Duration                                 : 1 h 51 min
Bit rate                                 : 45.3 kb/s
Count of elements                        : 2675
Stream size                              : 36.0 MiB (1%)
Language                                 : German
Default                                  : No
Forced                                   : No

Text #2
ID                                       : 5
Format                                   : PGS
Muxing mode                              : zlib
Codec ID                                 : S_HDMV/PGS
Codec ID/Info                            : Picture based subtitle format used on BDs/HD-DVDs
Duration                                 : 31 min 6 s
Bit rate                                 : 4 732 b/s
Count of elements                        : 108
Stream size                              : 1.05 MiB (0%)
Language                                 : German
Default                                  : No
Forced                                   : No

Text #3
ID                                       : 6
Format                                   : PGS
Muxing mode                              : zlib
Codec ID                                 : S_HDMV/PGS
Codec ID/Info                            : Picture based subtitle format used on BDs/HD-DVDs
Duration                                 : 1 h 50 min
Bit rate                                 : 1 740 b/s
Count of elements                        : 112
Stream size                              : 1.38 MiB (0%)
Language                                 : German
Default                                  : No
Forced                                   : No

Text #4
ID                                       : 7
Format                                   : PGS
Muxing mode                              : zlib
Codec ID                                 : S_HDMV/PGS
Codec ID/Info                            : Picture based subtitle format used on BDs/HD-DVDs
Duration                                 : 1 h 50 min
Bit rate                                 : 1 740 b/s
Count of elements                        : 112
Stream size                              : 1.38 MiB (0%)
Language                                 : German
Default                                  : No
Forced                                   : No

Menu #1
00:00:00.000                             : 00:00:00.000
00:12:31.584                             : 00:12:31.584
00:23:32.285                             : 00:23:32.285
00:37:21.989                             : 00:37:21.989
00:48:58.852                             : 00:48:58.852
01:03:16.959                             : 01:03:16.959
01:16:56.028                             : 01:16:56.028
01:27:34.791                             : 01:27:34.791
01:46:04.232                             : 01:46:04.232
Code:
Format                                   : Matroska
Format version                           : Version 4
File size                                : 3.76 GiB
Duration                                 : 1 h 52 min
Overall bit rate                         : 4 800 kb/s
Encoded date                             : UTC 2022-04-18 08:33:50
Writing application                      : mkvmerge v59.0.0 ('Shining Star') 64-bit
Writing library                          : libebml v1.4.2 + libmatroska v1.6.4 / Lavf59.20.101

Video
ID                                       : 1
Format                                   : AV1
Format/Info                              : AOMedia Video 1
Format profile                           : [email protected]
Codec ID                                 : V_AV1
Duration                                 : 1 h 52 min
Bit rate                                 : 3 760 kb/s
Width                                    : 1 920 pixels
Height                                   : 1 080 pixels
Display aspect ratio                     : 16:9
Frame rate mode                          : Constant
Frame rate                               : 23.976 (24000/1001) FPS
Color space                              : YUV
Chroma subsampling                       : 4:2:0
Bit depth                                : 10 bits
Bits/(Pixel*Frame)                       : 0.076
Stream size                              : 2.95 GiB (78%)
Default                                  : Yes
Forced                                   : No
Color range                              : Limited

Audio #1
ID                                       : 2
Format                                   : E-AC-3
Format/Info                              : Enhanced AC-3
Commercial name                          : Dolby Digital Plus
Codec ID                                 : A_EAC3
Duration                                 : 1 h 52 min
Bit rate mode                            : Constant
Bit rate                                 : 512 kb/s
Channel(s)                               : 6 channels
Channel layout                           : L R C LFE Ls Rs
Sampling rate                            : 48.0 kHz
Frame rate                               : 31.250 FPS (1536 SPF)
Compression mode                         : Lossy
Stream size                              : 411 MiB (11%)
Language                                 : German
Service kind                             : Complete Main
Default                                  : Yes
Forced                                   : No

Audio #2
ID                                       : 3
Format                                   : E-AC-3
Format/Info                              : Enhanced AC-3
Commercial name                          : Dolby Digital Plus
Codec ID                                 : A_EAC3
Duration                                 : 1 h 52 min
Bit rate mode                            : Constant
Bit rate                                 : 512 kb/s
Channel(s)                               : 6 channels
Channel layout                           : L R C LFE Ls Rs
Sampling rate                            : 48.0 kHz
Frame rate                               : 31.250 FPS (1536 SPF)
Compression mode                         : Lossy
Stream size                              : 411 MiB (11%)
Language                                 : Japanese
Service kind                             : Complete Main
Default                                  : Yes
Forced                                   : No

Text #1
ID                                       : 4
Format                                   : PGS
Muxing mode                              : zlib
Codec ID                                 : S_HDMV/PGS
Codec ID/Info                            : Picture based subtitle format used on BDs/HD-DVDs
Duration                                 : 1 h 51 min
Bit rate                                 : 45.3 kb/s
Count of elements                        : 2675
Stream size                              : 36.0 MiB (1%)
Language                                 : German
Default                                  : No
Forced                                   : No

Text #2
ID                                       : 5
Format                                   : PGS
Muxing mode                              : zlib
Codec ID                                 : S_HDMV/PGS
Codec ID/Info                            : Picture based subtitle format used on BDs/HD-DVDs
Duration                                 : 31 min 6 s
Bit rate                                 : 4 732 b/s
Count of elements                        : 108
Stream size                              : 1.05 MiB (0%)
Language                                 : German
Default                                  : No
Forced                                   : No

Text #3
ID                                       : 6
Format                                   : PGS
Muxing mode                              : zlib
Codec ID                                 : S_HDMV/PGS
Codec ID/Info                            : Picture based subtitle format used on BDs/HD-DVDs
Duration                                 : 1 h 50 min
Bit rate                                 : 1 740 b/s
Count of elements                        : 112
Stream size                              : 1.38 MiB (0%)
Language                                 : German
Default                                  : No
Forced                                   : No

Text #4
ID                                       : 7
Format                                   : PGS
Muxing mode                              : zlib
Codec ID                                 : S_HDMV/PGS
Codec ID/Info                            : Picture based subtitle format used on BDs/HD-DVDs
Duration                                 : 1 h 50 min
Bit rate                                 : 1 740 b/s
Count of elements                        : 112
Stream size                              : 1.38 MiB (0%)
Language                                 : German
Default                                  : No
Forced                                   : No

Menu #1
00:00:00.000                             : 00:00:00.000
00:12:31.584                             : 00:12:31.584
00:23:32.285                             : 00:23:32.285
00:37:21.989                             : 00:37:21.989
00:48:58.852                             : 00:48:58.852
01:03:16.959                             : 01:03:16.959
01:16:56.028                             : 01:16:56.028
01:27:34.791                             : 01:27:34.791
01:46:04.232                             : 01:46:04.232
Status:
1080p DTS-HD:
E2138848E9.png

1080p EAC3:
03D4A7A294.png

To view the content, you need to Sign In or Register.