Welcome to our Community
Wanting to join the rest of our members? Feel free to sign up today.
Sign up

Evangelion 3.33 - You Can (Not) Redo [Jap-Ger-Dub][Ger-Sub][DTS-HD | EAC3][1080p][AV1][10bit][BluRay] - Kleinmike

Kleinmike

Uploader
Otaku König
21 März 2021
284
4.712
93
Evangelion: 3.33 - You Can (Not) Redo.
ヱヴァンゲリヲン新劇場版: Q | Evangelion Shin Gekijouban: Q

4679.webp


Beschreibung:
14 Jahre sind seit dem Third Impact vergangen und während Shinji die Zeit im kryogenen Tiefschlaf im Weltall verbracht hat, hat sich auf der Erde so einiges verändert. Misato kämpft mit ihrer neu gegründeten Organisation WILLE gegen NERV, während Gendou Ikari den Fourth Impact auslösen will, um SEELEs oberstes Ziel zu erreichen. Shinji muss sich nun entscheiden, ob er an der Seite von Rei und Kaworu gegen seine alten Verbündeten kämpft oder den Plug Suit endgültig an den Nagel hängt und WILLE, NERV und die EVAs hinter sich lässt.
Quelle: anisearch


Größe: 7.79GB | 3.03GB
Sprache: Japanisch | Deutsch
Untertitel: Deutsch
Jahr: 2010
Genres: Actiondrama, Mecha, Mystery, Psychodrama, Scifi, Übermäßige Gewaltdarstellung
Auflösung: 1920x1080
Format: MKV
Videocodec: AV1
Farbtiefe: 10bit
Audiocodec: DTS-HD | EAC3
Release: Kleinmike
Publisher: LEONINE Anime
Hoster: DDownload | Uploaded

Mediainfo:
Code:
Format                                   : Matroska
Format version                           : Version 4
File size                                : 7.80 GiB
Duration                                 : 1 h 35 min
Overall bit rate mode                    : Variable
Overall bit rate                         : 11.7 Mb/s
Encoded date                             : UTC 2022-04-20 04:36:32
Writing application                      : mkvmerge v65.0.0 ('Too Much') 64-bit
Writing library                          : libebml v1.4.2 + libmatroska v1.6.4 / Lavf59.20.101

Video
ID                                       : 1
Format                                   : AV1
Format/Info                              : AOMedia Video 1
Format profile                           : [email protected]
Codec ID                                 : V_AV1
Duration                                 : 1 h 35 min
Bit rate                                 : 3 528 kb/s
Width                                    : 1 920 pixels
Height                                   : 1 080 pixels
Display aspect ratio                     : 16:9
Frame rate mode                          : Constant
Frame rate                               : 23.976 (24000/1001) FPS
Color space                              : YUV
Chroma subsampling                       : 4:2:0
Bit depth                                : 10 bits
Bits/(Pixel*Frame)                       : 0.071
Stream size                              : 2.34 GiB (30%)
Default                                  : Yes
Forced                                   : No
Color range                              : Limited

Audio #1
ID                                       : 2
Format                                   : DTS XLL
Format/Info                              : Digital Theater Systems
Commercial name                          : DTS-HD Master Audio
Codec ID                                 : A_DTS
Duration                                 : 1 h 35 min
Bit rate mode                            : Variable
Bit rate                                 : 4 108 kb/s
Channel(s)                               : 6 channels
Channel layout                           : C L R Ls Rs LFE
Sampling rate                            : 48.0 kHz
Frame rate                               : 93.750 FPS (512 SPF)
Bit depth                                : 24 bits
Compression mode                         : Lossless
Stream size                              : 2.73 GiB (35%)
Language                                 : German
Default                                  : Yes
Forced                                   : No

Audio #2
ID                                       : 3
Format                                   : DTS XLL
Format/Info                              : Digital Theater Systems
Commercial name                          : DTS-HD Master Audio
Codec ID                                 : A_DTS
Duration                                 : 1 h 35 min
Bit rate mode                            : Variable
Bit rate                                 : 4 087 kb/s
Channel(s)                               : 6 channels
Channel layout                           : C L R Ls Rs LFE
Sampling rate                            : 48.0 kHz
Frame rate                               : 93.750 FPS (512 SPF)
Bit depth                                : 24 bits
Compression mode                         : Lossless
Stream size                              : 2.72 GiB (35%)
Language                                 : Japanese
Default                                  : No
Forced                                   : No

Text #1
ID                                       : 4
Format                                   : PGS
Muxing mode                              : zlib
Codec ID                                 : S_HDMV/PGS
Codec ID/Info                            : Picture based subtitle format used on BDs/HD-DVDs
Duration                                 : 1 h 34 min
Bit rate                                 : 30.5 kb/s
Count of elements                        : 2078
Stream size                              : 20.6 MiB (0%)
Language                                 : German
Default                                  : No
Forced                                   : No

Text #2
ID                                       : 5
Format                                   : PGS
Muxing mode                              : zlib
Codec ID                                 : S_HDMV/PGS
Codec ID/Info                            : Picture based subtitle format used on BDs/HD-DVDs
Duration                                 : 56 min 29 s
Bit rate                                 : 802 b/s
Count of elements                        : 32
Stream size                              : 332 KiB (0%)
Language                                 : German
Default                                  : No
Forced                                   : No

Text #3
ID                                       : 6
Format                                   : PGS
Muxing mode                              : zlib
Codec ID                                 : S_HDMV/PGS
Codec ID/Info                            : Picture based subtitle format used on BDs/HD-DVDs
Duration                                 : 56 min 29 s
Bit rate                                 : 802 b/s
Count of elements                        : 32
Stream size                              : 332 KiB (0%)
Language                                 : German
Default                                  : No
Forced                                   : No

Menu #1
00:00:00.000                             : 00:00:00.000
00:10:17.033                             : 00:10:17.033
00:20:32.105                             : 00:20:32.105
00:30:05.553                             : 00:30:05.553
00:40:15.788                             : 00:40:15.788
00:53:08.602                             : 00:53:08.602
01:03:53.663                             : 01:03:53.663
01:16:07.145                             : 01:16:07.145
01:27:47.178                             : 01:27:47.178
Code:
Format                                   : Matroska
Format version                           : Version 4
File size                                : 3.03 GiB
Duration                                 : 1 h 35 min
Overall bit rate                         : 4 565 kb/s
Encoded date                             : UTC 2022-04-21 01:41:56
Writing application                      : mkvmerge v59.0.0 ('Shining Star') 64-bit
Writing library                          : libebml v1.4.2 + libmatroska v1.6.4 / Lavf59.20.101

Video
ID                                       : 1
Format                                   : AV1
Format/Info                              : AOMedia Video 1
Format profile                           : [email protected]
Codec ID                                 : V_AV1
Duration                                 : 1 h 35 min
Bit rate                                 : 3 528 kb/s
Width                                    : 1 920 pixels
Height                                   : 1 080 pixels
Display aspect ratio                     : 16:9
Frame rate mode                          : Constant
Frame rate                               : 23.976 (24000/1001) FPS
Color space                              : YUV
Chroma subsampling                       : 4:2:0
Bit depth                                : 10 bits
Bits/(Pixel*Frame)                       : 0.071
Stream size                              : 2.34 GiB (77%)
Default                                  : Yes
Forced                                   : No
Color range                              : Limited

Audio #1
ID                                       : 2
Format                                   : E-AC-3
Format/Info                              : Enhanced AC-3
Commercial name                          : Dolby Digital Plus
Codec ID                                 : A_EAC3
Duration                                 : 1 h 35 min
Bit rate mode                            : Constant
Bit rate                                 : 512 kb/s
Channel(s)                               : 6 channels
Channel layout                           : L R C LFE Ls Rs
Sampling rate                            : 48.0 kHz
Frame rate                               : 31.250 FPS (1536 SPF)
Compression mode                         : Lossy
Stream size                              : 348 MiB (11%)
Language                                 : German
Service kind                             : Complete Main
Default                                  : Yes
Forced                                   : No

Audio #2
ID                                       : 3
Format                                   : E-AC-3
Format/Info                              : Enhanced AC-3
Commercial name                          : Dolby Digital Plus
Codec ID                                 : A_EAC3
Duration                                 : 1 h 35 min
Bit rate mode                            : Constant
Bit rate                                 : 512 kb/s
Channel(s)                               : 6 channels
Channel layout                           : L R C LFE Ls Rs
Sampling rate                            : 48.0 kHz
Frame rate                               : 31.250 FPS (1536 SPF)
Compression mode                         : Lossy
Stream size                              : 348 MiB (11%)
Language                                 : Japanese
Service kind                             : Complete Main
Default                                  : Yes
Forced                                   : No

Text #1
ID                                       : 4
Format                                   : PGS
Muxing mode                              : zlib
Codec ID                                 : S_HDMV/PGS
Codec ID/Info                            : Picture based subtitle format used on BDs/HD-DVDs
Duration                                 : 1 h 34 min
Bit rate                                 : 30.5 kb/s
Count of elements                        : 2078
Stream size                              : 20.6 MiB (1%)
Language                                 : German
Default                                  : No
Forced                                   : No

Text #2
ID                                       : 5
Format                                   : PGS
Muxing mode                              : zlib
Codec ID                                 : S_HDMV/PGS
Codec ID/Info                            : Picture based subtitle format used on BDs/HD-DVDs
Duration                                 : 56 min 29 s
Bit rate                                 : 802 b/s
Count of elements                        : 32
Stream size                              : 332 KiB (0%)
Language                                 : German
Default                                  : No
Forced                                   : No

Text #3
ID                                       : 6
Format                                   : PGS
Muxing mode                              : zlib
Codec ID                                 : S_HDMV/PGS
Codec ID/Info                            : Picture based subtitle format used on BDs/HD-DVDs
Duration                                 : 56 min 29 s
Bit rate                                 : 802 b/s
Count of elements                        : 32
Stream size                              : 332 KiB (0%)
Language                                 : German
Default                                  : No
Forced                                   : No

Menu #1
00:00:00.000                             : 00:00:00.000
00:10:17.033                             : 00:10:17.033
00:20:32.105                             : 00:20:32.105
00:30:05.553                             : 00:30:05.553
00:40:15.788                             : 00:40:15.788
00:53:08.602                             : 00:53:08.602
01:03:53.663                             : 01:03:53.663
01:16:07.145                             : 01:16:07.145
01:27:47.178                             : 01:27:47.178
Status:
1080p DTS-HD:
6537E7EF16.png

1080p EAC3:
795B5DFE34.png

To view the content, you need to Sign In or Register.
 
Zuletzt bearbeitet: