Welcome to our Community
Wanting to join the rest of our members? Feel free to sign up today.
Sign up

Fate/Grand Order: Final Singularity - The Grand Temple of Time: Solomon | Fate/Grand Order: Shuukyoku Tokuiten - Kan‘i Jikan Shinden Solomon [Ger-Jap-Dub][Ger-Sub][720p|1080p][E-AC-3|DTS-HD][8bits|10bits][x264|x265|AV1][BluRay] - AO

Kleinmike

Uploader
Otaku König
21 März 2021
284
4.710
93


Fate/Grand Order: Final Singularity - The Grand Temple of Time: Solomon | Fate/Grand Order: Shuukyoku Tokuiten - Kan‘i Jikan Shinden Solomon



16397_300.webp



oie_bchbujbgr3vm-png.30595
anisearch.com schrieb:
Nachdem sie bereits viele Hindernisse überwunden haben, stehen die Mitglieder der Chaldea Security Organization nun vor ihrer letzten großen Aufgabe: Sie müssen den König der Magier, Salomon, besiegen, damit wieder Frieden herrschen kann. Doch kurz vor ihrem Einsatz gibt es noch andere Probleme, um die es sich zu kümmern gilt. Romani Archaman denkt über die schwierigen Entscheidungen nach, die er treffen muss, Mash Kyrielight hadert mit ihren eigenen Limitationen und Ritsuka Fujimaru bereitet sich darauf vor, einen neuen »Mystic Code« zu erlernen. Bald schon wird sich ihr Schicksal entscheiden …
Quelle: https://www.anisearch.de/anime/16397,fate-grand-order-shuukyoku-tokuiten-kani-jikan-shinden-solomon



oie_bchbujbgr3vm1-png.30596


Spieldauer: ~1h 34min
Genre: Actiondrama
Nebengenres: -
Jahr: 2021
Sprache:
Deutsch.png
Deutsch,
Japanisch.png
Japanisch
Untertitel:
Deutsch.png
Deutsch
Größe: ~4.46GiB | ~10.1GiB | ~10.4GiB | ~6.99GiB
Format: MKV
Auflösung: 720p (16:9) | 1080p (16:9)
Videocodec: x264(AVC) | x265(HEVC) | AV1(AOM)
Audiocodec: DTS-HD | E-AC-3
Releasegruppe: Anime Otakus
Hoster:
rapidgator-gif.30742
Rapidgator,
ddownload-gif.30720
ddownload


oie_bchbujbgr3vm2-png.30597

Rich (BBCode):

Format                                   : Matroska
Format version                           : Version 4
File size                                : 4.46 GiB
Duration                                 : 1 h 34 min
Overall bit rate                         : 6 773 kb/s
Writing application                      : no_variable_data
Writing library                          : no_variable_data
Release by                               : Anime Otakus
Version                                  : 1.46

Video
ID                                       : 4
Format                                   : AVC
Format/Info                              : Advanced Video Codec
Format profile                           : [email protected]
Format settings                          : CABAC / 8 Ref Frames
Format settings, CABAC                   : Yes
Format settings, Reference frames        : 8 frames
Codec ID                                 : V_MPEG4/ISO/AVC
Duration                                 : 1 h 34 min
Bit rate                                 : 11.4 Mb/s
Width                                    : 1 280 pixels
Height                                   : 720 pixels
Display aspect ratio                     : 16:9
Frame rate mode                          : Constant
Frame rate                               : 23.976 (24000/1001) FPS
Color space                              : YUV
Chroma subsampling                       : 4:2:0
Bit depth                                : 8 bits
Scan type                                : Progressive
Bits/(Pixel*Frame)                       : 0.518
Stream size                              : 7.53 GiB
Language                                 : English
Default                                  : Yes
Forced                                   : No
Color range                              : Limited
Color primaries                          : BT.709
Transfer characteristics                 : BT.709
Matrix coefficients                      : BT.709

Audio #1
ID                                       : 2
Format                                   : E-AC-3
Format/Info                              : Enhanced AC-3
Commercial name                          : Dolby Digital Plus
Codec ID                                 : A_EAC3
Duration                                 : 1 h 34 min
Bit rate mode                            : Constant
Bit rate                                 : 640 kb/s
Channel(s)                               : 6 channels
Channel layout                           : L R C LFE Ls Rs
Sampling rate                            : 48.0 kHz
Frame rate                               : 31.250 FPS (1536 SPF)
Bit depth                                : 32 bits
Compression mode                         : Lossy
Stream size                              : 431 MiB (9%)
Language                                 : German
Service kind                             : Complete Main
Default                                  : Yes
Forced                                   : No

Audio #2
ID                                       : 3
Format                                   : E-AC-3
Format/Info                              : Enhanced AC-3
Commercial name                          : Dolby Digital Plus
Codec ID                                 : A_EAC3
Duration                                 : 1 h 34 min
Bit rate mode                            : Constant
Bit rate                                 : 640 kb/s
Channel(s)                               : 6 channels
Channel layout                           : L R C LFE Ls Rs
Sampling rate                            : 48.0 kHz
Frame rate                               : 31.250 FPS (1536 SPF)
Bit depth                                : 32 bits
Compression mode                         : Lossy
Stream size                              : 431 MiB (9%)
Language                                 : Japanese
Service kind                             : Complete Main
Default                                  : No
Forced                                   : No

Text
ID                                       : 1
Format                                   : PGS
Muxing mode                              : zlib
Codec ID                                 : S_HDMV/PGS
Codec ID/Info                            : Picture based subtitle format used on BDs/HD-DVDs
Title                                    : German Full
Language                                 : German
Default                                  : No
Forced                                   : No

Menu
00:00:00.000                             : 00:00:00.000
00:08:08.321                             : 00:08:08.321
00:13:29.016                             : 00:13:29.016
00:19:18.073                             : 00:19:18.073
00:25:15.180                             : 00:25:15.180
00:34:29.609                             : 00:34:29.609
00:42:35.344                             : 00:42:35.344
00:47:37.938                             : 00:47:37.938
00:57:37.787                             : 00:57:37.787
01:06:01.916                             : 01:06:01.916
01:11:42.006                             : 01:11:42.006
01:23:31.548                             : 01:23:31.548
Rich (BBCode):

Format                                   : Matroska
Format version                           : Version 4
File size                                : 10.1 GiB
Duration                                 : 1 h 34 min
Overall bit rate mode                    : Variable
Overall bit rate                         : 15.3 Mb/s
Writing application                      : no_variable_data
Writing library                          : no_variable_data
Release by                               : Anime Otakus
Version                                  : 1.46

Video
ID                                       : 4
Format                                   : AVC
Format/Info                              : Advanced Video Codec
Format profile                           : [email protected]
Format settings                          : CABAC / 12 Ref Frames
Format settings, CABAC                   : Yes
Format settings, Reference frames        : 12 frames
Codec ID                                 : V_MPEG4/ISO/AVC
Duration                                 : 1 h 34 min
Bit rate                                 : 11.4 Mb/s
Width                                    : 1 920 pixels
Height                                   : 1 080 pixels
Display aspect ratio                     : 16:9
Frame rate mode                          : Constant
Frame rate                               : 23.976 (24000/1001) FPS
Color space                              : YUV
Chroma subsampling                       : 4:2:0
Bit depth                                : 8 bits
Scan type                                : Progressive
Bits/(Pixel*Frame)                       : 0.230
Stream size                              : 7.53 GiB (75%)
Language                                 : English
Default                                  : Yes
Forced                                   : No
Color range                              : Limited
Color primaries                          : BT.709
Transfer characteristics                 : BT.709
Matrix coefficients                      : BT.709

Audio #1
ID                                       : 2
Format                                   : DTS XLL
Format/Info                              : Digital Theater Systems
Commercial name                          : DTS-HD Master Audio
Codec ID                                 : A_DTS
Duration                                 : 1 h 34 min
Bit rate mode                            : Variable
Bit rate                                 : 1 907 kb/s
Channel(s)                               : 6 channels
Channel layout                           : C L R Ls Rs LFE
Sampling rate                            : 48.0 kHz
Frame rate                               : 93.750 FPS (512 SPF)
Bit depth                                : 16 bits
Compression mode                         : Lossless
Stream size                              : 1.26 GiB (12%)
Language                                 : German
Default                                  : Yes
Forced                                   : No

Audio #2
ID                                       : 3
Format                                   : DTS XLL
Format/Info                              : Digital Theater Systems
Commercial name                          : DTS-HD Master Audio
Codec ID                                 : A_DTS
Duration                                 : 1 h 34 min
Bit rate mode                            : Variable
Bit rate                                 : 1 970 kb/s
Channel(s)                               : 6 channels
Channel layout                           : C L R Ls Rs LFE
Sampling rate                            : 48.0 kHz
Frame rate                               : 93.750 FPS (512 SPF)
Bit depth                                : 16 bits
Compression mode                         : Lossless
Stream size                              : 1.30 GiB (13%)
Language                                 : Japanese
Default                                  : No
Forced                                   : No

Text
ID                                       : 1
Format                                   : PGS
Muxing mode                              : zlib
Codec ID                                 : S_HDMV/PGS
Codec ID/Info                            : Picture based subtitle format used on BDs/HD-DVDs
Duration                                 : 1 h 33 min
Bit rate                                 : 39.9 kb/s
Count of elements                        : 1605
Stream size                              : 26.7 MiB (0%)
Title                                    : German Full
Language                                 : German
Default                                  : No
Forced                                   : No

Menu
00:00:00.000                             : 00:00:00.000
00:08:08.321                             : 00:08:08.321
00:13:29.016                             : 00:13:29.016
00:19:18.073                             : 00:19:18.073
00:25:15.180                             : 00:25:15.180
00:34:29.609                             : 00:34:29.609
00:42:35.344                             : 00:42:35.344
00:47:37.938                             : 00:47:37.938
00:57:37.787                             : 00:57:37.787
01:06:01.916                             : 01:06:01.916
01:11:42.006                             : 01:11:42.006
01:23:31.548                             : 01:23:31.548
Rich (BBCode):

Format                                   : Matroska
Format version                           : Version 4
File size                                : 10.4 GiB
Duration                                 : 1 h 34 min
Overall bit rate mode                    : Variable
Overall bit rate                         : 15.8 Mb/s
Writing application                      : no_variable_data
Writing library                          : no_variable_data
Release by                               : Anime Otakus
Version                                  : 1.46

Video
ID                                       : 4
Format                                   : HEVC
Format/Info                              : High Efficiency Video Coding
Format profile                           : Main [email protected]@Main
Codec ID                                 : V_MPEGH/ISO/HEVC
Duration                                 : 1 h 34 min
Width                                    : 1 920 pixels
Height                                   : 1 080 pixels
Display aspect ratio                     : 16:9
Frame rate mode                          : Constant
Frame rate                               : 23.976 (24000/1001) FPS
Color space                              : YUV
Chroma subsampling                       : 4:2:0
Bit depth                                : 10 bits
Language                                 : English
Default                                  : Yes
Forced                                   : No

Audio #1
ID                                       : 2
Format                                   : DTS XLL
Format/Info                              : Digital Theater Systems
Commercial name                          : DTS-HD Master Audio
Codec ID                                 : A_DTS
Duration                                 : 1 h 34 min
Bit rate mode                            : Variable
Channel(s)                               : 6 channels
Channel layout                           : C L R Ls Rs LFE
Sampling rate                            : 48.0 kHz
Frame rate                               : 93.750 FPS (512 SPF)
Bit depth                                : 16 bits
Compression mode                         : Lossless
Language                                 : German
Default                                  : Yes
Forced                                   : No

Audio #2
ID                                       : 3
Format                                   : DTS XLL
Format/Info                              : Digital Theater Systems
Commercial name                          : DTS-HD Master Audio
Codec ID                                 : A_DTS
Duration                                 : 1 h 34 min
Bit rate mode                            : Variable
Channel(s)                               : 6 channels
Channel layout                           : C L R Ls Rs LFE
Sampling rate                            : 48.0 kHz
Frame rate                               : 93.750 FPS (512 SPF)
Bit depth                                : 16 bits
Compression mode                         : Lossless
Language                                 : Japanese
Default                                  : No
Forced                                   : No

Text
ID                                       : 1
Format                                   : PGS
Muxing mode                              : zlib
Codec ID                                 : S_HDMV/PGS
Codec ID/Info                            : Picture based subtitle format used on BDs/HD-DVDs
Title                                    : German Full
Language                                 : German
Default                                  : No
Forced                                   : No

Menu
00:00:00.000                             : 00:00:00.000
00:08:08.321                             : 00:08:08.321
00:13:29.016                             : 00:13:29.016
00:19:18.073                             : 00:19:18.073
00:25:15.180                             : 00:25:15.180
00:34:29.609                             : 00:34:29.609
00:42:35.344                             : 00:42:35.344
00:47:37.938                             : 00:47:37.938
00:57:37.787                             : 00:57:37.787
01:06:01.916                             : 01:06:01.916
01:11:42.006                             : 01:11:42.006
01:23:31.548                             : 01:23:31.548
Rich (BBCode):

Format                                   : Matroska
Format version                           : Version 4
File size                                : 6.99 GiB
Duration                                 : 1 h 34 min
Overall bit rate mode                    : Variable
Overall bit rate                         : 10.6 Mb/s
Writing application                      : no_variable_data
Writing library                          : no_variable_data
Released by                              : Anime Otakus
Version                                  : 1.4

Video
ID                                       : 1
Format                                   : AV1
Format/Info                              : AOMedia Video 1
Format profile                           : [email protected]
Codec ID                                 : V_AV1
Duration                                 : 1 h 34 min
Bit rate                                 : 6 717 kb/s
Width                                    : 1 920 pixels
Height                                   : 1 080 pixels
Display aspect ratio                     : 16:9
Frame rate mode                          : Constant
Frame rate                               : 23.976 (24000/1001) FPS
Color space                              : YUV
Chroma subsampling                       : 4:2:0
Bit depth                                : 10 bits
Bits/(Pixel*Frame)                       : 0.135
Stream size                              : 4.42 GiB (63%)
Default                                  : No
Forced                                   : No
Color range                              : Limited
Color primaries                          : BT.709
Transfer characteristics                 : BT.709
Matrix coefficients                      : BT.709

Audio #1
ID                                       : 3
Format                                   : DTS XLL
Format/Info                              : Digital Theater Systems
Commercial name                          : DTS-HD Master Audio
Codec ID                                 : A_DTS
Duration                                 : 1 h 34 min
Bit rate mode                            : Variable
Bit rate                                 : 1 907 kb/s
Channel(s)                               : 6 channels
Channel layout                           : C L R Ls Rs LFE
Sampling rate                            : 48.0 kHz
Frame rate                               : 93.750 FPS (512 SPF)
Bit depth                                : 16 bits
Compression mode                         : Lossless
Stream size                              : 1.26 GiB (18%)
Language                                 : German
Default                                  : Yes
Forced                                   : No

Audio #2
ID                                       : 4
Format                                   : DTS XLL
Format/Info                              : Digital Theater Systems
Commercial name                          : DTS-HD Master Audio
Codec ID                                 : A_DTS
Duration                                 : 1 h 34 min
Bit rate mode                            : Variable
Bit rate                                 : 1 970 kb/s
Channel(s)                               : 6 channels
Channel layout                           : C L R Ls Rs LFE
Sampling rate                            : 48.0 kHz
Frame rate                               : 93.750 FPS (512 SPF)
Bit depth                                : 16 bits
Compression mode                         : Lossless
Stream size                              : 1.30 GiB (19%)
Language                                 : Japanese
Default                                  : No
Forced                                   : No

Text
ID                                       : 2
Format                                   : PGS
Muxing mode                              : zlib
Codec ID                                 : S_HDMV/PGS
Codec ID/Info                            : Picture based subtitle format used on BDs/HD-DVDs
Duration                                 : 1 h 33 min
Bit rate                                 : 39.9 kb/s
Count of elements                        : 1605
Stream size                              : 26.7 MiB (0%)
Title                                    : German Full
Language                                 : German
Default                                  : No
Forced                                   : No

Menu
00:00:00.000                             : 00:00:00.000
00:08:08.321                             : 00:08:08.321
00:13:29.016                             : 00:13:29.016
00:19:18.073                             : 00:19:18.073
00:25:15.180                             : 00:25:15.180
00:34:29.609                             : 00:34:29.609
00:42:35.344                             : 00:42:35.344
00:47:37.938                             : 00:47:37.938
00:57:37.787                             : 00:57:37.787
01:06:01.916                             : 01:06:01.916
01:11:42.006                             : 01:11:42.006
01:23:31.548                             : 01:23:31.548



oie_bchbujbgr3vm3-png.30598

cooltext396117611400625-png.30739

djclne9-png.30614
1439AC9AAB.png

zt2lbs3-png.30611
1BD98E5B63.png

cfa5dsl-png.30616
dm5wkw6-png.30611
5B1042F376.png

cfa5dsl1-png.30874
dm5wkw6-png.30611
D96DEBBE09.png


cooltext3961176114006251-png.30741

djclne9-png.30614
592E8B5E6F.png

zt2lbs3-png.30611
5E2FDAAA90.png

cfa5dsl-png.30616
dm5wkw6-png.30611
C29377FE41.png

cfa5dsl1-png.30874
dm5wkw6-png.30611
8FD46B2E85.png


To view the content, you need to Sign In or Register.