Welcome to our Community
Wanting to join the rest of our members? Feel free to sign up today.
Sign up

Fire Force Staffel 2 [Ger-Jap-Dub][Ger-Sub][1080p][DTS-HD][10bits][AV1][BluRay] - AO

Kleinmike

Uploader
Otaku König
21 März 2021
284
4.716
93
Fire Force Staffel 2
炎炎ノ消防隊 弐ノ章 | En’en no Shouboutai Ni no Shou

14850.webp


Beschreibung:
»En’en no Shouboutai« geht in die zweite Runde. Shinra und die Mitglieder der achten Feuerwehreinheit haben bereits das Ziel der Organisation »The Evangelist« herausgefunden: den Adolla Burst von Shinra und seinem Bruder Shou in die Hände zu bekommen. Nachdem Shinra nun von Captain Burns mehr über seine eigene Vergangenheit erfahren hat, ist er mehr als motiviert, seine Mutter und seinen Bruder zu retten.

Doch plötzlich enthüllt ein mysteriöses Mädchen, das sich selbst als die »Erste Säule« bezeichnet, den Plan von »The Evangelist«, eine weitere große Brandkatastrophe zu starten. Noch dazu würde bald eine weitere »Säule« geboren und der Kampf um sie beginnt. Wer wird sie wohl zuerst in die Finger bekommen – »The Evangelist« oder die Special Fire Force?
Quelle: anisearch



Folgen: 24/24
Größe: ~1375MB
Sprache: Japanisch | Deutsch
Untertitel: Deutsch
Jahr: 2022
Genres: Action, Abenteuer, Drama, Fantasy, Komödie, Scifi
Auflösung: 1920x1080
Format: MKV
Videocodec: AV1
Farbtiefe: 10bit
Audiocodec: DTS-HD
Releaser: Anime Otakus
Publisher: peppermint anime GmbH
Hoster: DDownload | Uploaded

Mediainfo:
Rich (BBCode):
Format                                   : Matroska
Format version                           : Version 4
File size                                : 1.46 GiB
Duration                                 : 24 min 29 s
Overall bit rate mode                    : Variable
Overall bit rate                         : 8 548 kb/s
Encoded by                               : Mike
Encoded date                             : UTC 2022-05-17 21:57:14
Writing application                      : mkvmerge v65.0.0 ('Too Much') 64-bit
Writing library                          : libebml v1.4.2 + libmatroska v1.6.4 / Lavf59.20.101
Released by                              : Anime Otakus
Version                                  : 1.1

Video
ID                                       : 1
Format                                   : AV1
Format/Info                              : AOMedia Video 1
Format profile                           : [email protected]
Codec ID                                 : V_AV1
Duration                                 : 24 min 29 s
Bit rate                                 : 6 400 kb/s
Width                                    : 1 920 pixels
Height                                   : 1 080 pixels
Display aspect ratio                     : 16:9
Frame rate mode                          : Constant
Frame rate                               : 23.976 (24000/1001) FPS
Color space                              : YUV
Chroma subsampling                       : 4:2:0
Bit depth                                : 10 bits
Bits/(Pixel*Frame)                       : 0.129
Stream size                              : 1.09 GiB (75%)
Default                                  : Yes
Forced                                   : No
Color range                              : Limited

Audio #1
ID                                       : 2
Format                                   : DTS XLL
Format/Info                              : Digital Theater Systems
Commercial name                          : DTS-HD Master Audio
Codec ID                                 : A_DTS
Duration                                 : 24 min 29 s
Bit rate mode                            : Variable
Bit rate                                 : 1 070 kb/s
Channel(s)                               : 2 channels
Channel layout                           : L R
Sampling rate                            : 48.0 kHz
Frame rate                               : 93.750 FPS (512 SPF)
Bit depth                                : 16 bits
Compression mode                         : Lossless
Stream size                              : 187 MiB (13%)
Language                                 : German
Default                                  : Yes
Forced                                   : No

Audio #2
ID                                       : 3
Format                                   : DTS XLL
Format/Info                              : Digital Theater Systems
Commercial name                          : DTS-HD Master Audio
Codec ID                                 : A_DTS
Duration                                 : 24 min 29 s
Bit rate mode                            : Variable
Bit rate                                 : 1 060 kb/s
Channel(s)                               : 2 channels
Channel layout                           : L R
Sampling rate                            : 48.0 kHz
Frame rate                               : 93.750 FPS (512 SPF)
Bit depth                                : 16 bits
Compression mode                         : Lossless
Stream size                              : 186 MiB (12%)
Language                                 : Japanese
Default                                  : No
Forced                                   : No

Text
ID                                       : 4
Format                                   : PGS
Muxing mode                              : zlib
Codec ID                                 : S_HDMV/PGS
Codec ID/Info                            : Picture based subtitle format used on BDs/HD-DVDs
Duration                                 : 24 min 24 s
Bit rate                                 : 33.2 kb/s
Count of elements                        : 405
Stream size                              : 5.80 MiB (0%)
Language                                 : German
Default                                  : No
Forced                                   : No

Menu #1
00:00:00.000                             : 00:00:00.000
00:00:36.286                             : 00:00:36.286
00:13:35.898                             : 00:13:35.898
00:15:05.946                             : 00:15:05.946
00:16:47.006                             : 00:16:47.006
00:22:28.013                             : 00:22:28.013
00:23:58.019                             : 00:23:58.019

Menu #2
00:00:00.000                             : 00:00:00.000
00:00:36.286                             : 00:00:36.286
00:13:35.898                             : 00:13:35.898
00:15:05.946                             : 00:15:05.946
00:16:47.006                             : 00:16:47.006
00:22:28.013                             : 00:22:28.013
00:23:58.019                             : 00:23:58.019
[/color]
Status:
1080p:
624C936960.png


To view the content, you need to Sign In or Register.