Wir verwenden Cookies, um deinen Aufenthalt auf Animes.so möglichst angenehm gestalten zu können. Mehr erfahren

Flag - The Movie (Director's Cut) [Ger-Jap-Dub][Ger-Sub][720p|1080p][BluRay] - STARS

Dieses Thema im Forum "Anime Filme (Deutsch)" wurde erstellt von Nanachi, 1. Juli 2015.

  1. Nanachi
    Nanachi

    Uploader Otaku Experte

    Registriert seit:
    2. Okt. 2017
    Beiträge:
    112
    Zustimmungen:
    1.107

    FLAG Director's Edition - Issenman no Kufura no Kiroku
    FLAG Director's Edition 一千万のクフラの記録
    FLAG - The Movie (Director's Cut)



    [​IMG]


    Kurzbeschreibung:


    Spieldauer: 100min
    Genre: Actiondrama
    Nebengenres: Action, Drama, Mecha, Scifi
    Jahr: 2007
    Sprache: [​IMG] Deutsch, [​IMG] Japanisch
    Untertitel: [​IMG] Deutsch
    Größe pro Folge: 5598mb, 8150mb
    Episodenanzahl: 1/1
    Source: BluRay
    Format: MKV
    Auflösung: 720p (16:9), 1080p (16:9)
    Videocodec: H264 (AVC)
    Audiocodec: DTS
    Releasegruppe: STARS
    Hoster: [​IMG] DDownload, [​IMG] Uploaded


    Code:
    Format                                   : Matroska
    Format version                           : Version 2
    File size                                : 5.47 GiB
    Duration                                 : 1h 41mn
    Overall bit rate                         : 7 728 Kbps
    Movie name                               : FLAG - THE MOVIE - 720P - STARS
    Encoded date                             : UTC 2009-08-22 19:40:06
    Writing application                      : mkvmerge v2.9.7 ('Tenderness') built on Jul  1 2009 18:43:35
    Writing library                          : libebml v0.7.7 + libmatroska v0.8.1
    
    Video
    ID                                       : 1
    Format                                   : AVC
    Format/Info                              : Advanced Video Codec
    Format profile                           : High@L4.1
    Format settings, CABAC                   : Yes
    Format settings, ReFrames                : 5 frames
    Codec ID                                 : V_MPEG4/ISO/AVC
    Duration                                 : 1h 41mn
    Bit rate                                 : 4 707 Kbps
    Width                                    : 1 280 pixels
    Height                                   : 720 pixels
    Display aspect ratio                     : 16:9
    Frame rate mode                          : Constant
    Frame rate                               : 23.976 fps
    Color space                              : YUV
    Chroma subsampling                       : 4:2:0
    Bit depth                                : 8 bits
    Scan type                                : Progressive
    Bits/(Pixel*Frame)                       : 0.213
    Stream size                              : 3.22 GiB (59%)
    Title                                    : FLAG - THE MOVIE - 720P - STARS
    Writing library                          : x264 core 72 r1217 5e9ae4c
    Encoding settings                        : cabac=1 / ref=5 / deblock=1:0:0 / analyse=0x3:0x133 / me=umh / subme=7 / psy=1 / psy_rd=1.0:0.0 / mixed_ref=1 / me_range=16 / chroma_me=1 / trellis=1 / 8x8dct=1 / cqm=0 / deadzone=21,11 / chroma_qp_offset=-2 / threads=12 / nr=0 / decimate=1 / mbaff=0 / bframes=3 / b_pyramid=1 / b_adapt=1 / b_bias=0 / direct=1 / wpredb=1 / keyint=250 / keyint_min=25 / scenecut=40 / rc=2pass / mbtree=0 / bitrate=4707 / ratetol=1.0 / qcomp=0.60 / qpmin=10 / qpmax=51 / qpstep=4 / cplxblur=20.0 / qblur=0.5 / ip_ratio=1.40 / pb_ratio=1.30 / aq=1:1.00
    Language                                 : German
    Default                                  : Yes
    Forced                                   : Yes
    
    Audio #1
    ID                                       : 2
    Format                                   : DTS
    Format/Info                              : Digital Theater Systems
    Mode                                     : 16
    Format settings, Endianness              : Big
    Codec ID                                 : A_DTS
    Duration                                 : 1h 41mn
    Bit rate mode                            : Constant
    Bit rate                                 : 1 509 Kbps
    Channel(s)                               : 6 channels
    Channel positions                        : Front: L C R, Side: L R, LFE
    Sampling rate                            : 48.0 KHz
    Bit depth                                : 16 bits
    Compression mode                         : Lossy
    Stream size                              : 1.07 GiB (20%)
    Title                                    : GERMAN DTS - 1508
    Language                                 : German
    Default                                  : Yes
    Forced                                   : Yes
    
    Audio #2
    ID                                       : 3
    Format                                   : DTS
    Format/Info                              : Digital Theater Systems
    Mode                                     : 16
    Format settings, Endianness              : Big
    Codec ID                                 : A_DTS
    Duration                                 : 1h 41mn
    Bit rate mode                            : Constant
    Bit rate                                 : 1 509 Kbps
    Channel(s)                               : 6 channels
    Channel positions                        : Front: L C R, Side: L R, LFE
    Sampling rate                            : 48.0 KHz
    Bit depth                                : 24 bits
    Compression mode                         : Lossy
    Stream size                              : 1.07 GiB (20%)
    Title                                    : JAPANESE DTS - 1508 KBPS
    Language                                 : Japanese
    Default                                  : No
    Forced                                   : No
    
    Text #1
    ID                                       : 4
    Format                                   : UTF-8
    Codec ID                                 : S_TEXT/UTF8
    Codec ID/Info                            : UTF-8 Plain Text
    Title                                    : GERMAN SUB
    Language                                 : German
    Default                                  : No
    Forced                                   : No
    
    Text #2
    ID                                       : 5
    Format                                   : UTF-8
    Codec ID                                 : S_TEXT/UTF8
    Codec ID/Info                            : UTF-8 Plain Text
    Title                                    : GERMAN FORCED SUB
    Language                                 : German
    Default                                  : Yes
    Forced                                   : Yes
    
    
    Code:
    Format                                   : Matroska
    Format version                           : Version 2
    File size                                : 7.96 GiB
    Duration                                 : 1h 41mn
    Overall bit rate                         : 11.2 Mbps
    Movie name                               : FLAG - THE MOVIE - 1080P - STARS
    Encoded date                             : UTC 2009-08-27 12:13:06
    Writing application                      : mkvmerge v2.9.7 ('Tenderness') built on Jul  1 2009 18:43:35
    Writing library                          : libebml v0.7.7 + libmatroska v0.8.1
    
    Video
    ID                                       : 1
    Format                                   : AVC
    Format/Info                              : Advanced Video Codec
    Format profile                           : High@L4.1
    Format settings, CABAC                   : Yes
    Format settings, ReFrames                : 4 frames
    Codec ID                                 : V_MPEG4/ISO/AVC
    Duration                                 : 1h 41mn
    Bit rate                                 : 8 229 Kbps
    Width                                    : 1 920 pixels
    Height                                   : 1 080 pixels
    Display aspect ratio                     : 16:9
    Frame rate mode                          : Constant
    Frame rate                               : 23.976 fps
    Color space                              : YUV
    Chroma subsampling                       : 4:2:0
    Bit depth                                : 8 bits
    Scan type                                : Progressive
    Bits/(Pixel*Frame)                       : 0.166
    Stream size                              : 5.67 GiB (71%)
    Title                                    : FLAG - THE MOVIE - 1080P - STARS
    Writing library                          : x264 core 72 r1217 5e9ae4c
    Encoding settings                        : cabac=1 / ref=4 / deblock=1:0:0 / analyse=0x3:0x133 / me=umh / subme=7 / psy=1 / psy_rd=1.0:0.0 / mixed_ref=1 / me_range=16 / chroma_me=1 / trellis=1 / 8x8dct=1 / cqm=0 / deadzone=21,11 / chroma_qp_offset=-2 / threads=12 / nr=0 / decimate=1 / mbaff=0 / bframes=3 / b_pyramid=1 / b_adapt=1 / b_bias=0 / direct=1 / wpredb=1 / keyint=250 / keyint_min=25 / scenecut=40 / rc=2pass / mbtree=0 / bitrate=8229 / ratetol=1.0 / qcomp=0.60 / qpmin=10 / qpmax=51 / qpstep=4 / cplxblur=20.0 / qblur=0.5 / ip_ratio=1.40 / pb_ratio=1.30 / aq=1:1.00
    Language                                 : German
    Default                                  : Yes
    Forced                                   : Yes
    
    Audio #1
    ID                                       : 2
    Format                                   : DTS
    Format/Info                              : Digital Theater Systems
    Mode                                     : 16
    Format settings, Endianness              : Big
    Codec ID                                 : A_DTS
    Duration                                 : 1h 41mn
    Bit rate mode                            : Constant
    Bit rate                                 : 1 509 Kbps
    Channel(s)                               : 6 channels
    Channel positions                        : Front: L C R, Side: L R, LFE
    Sampling rate                            : 48.0 KHz
    Bit depth                                : 16 bits
    Compression mode                         : Lossy
    Stream size                              : 1.07 GiB (13%)
    Title                                    : GERMAN DTS - 1508 KBPS
    Language                                 : German
    Default                                  : Yes
    Forced                                   : Yes
    
    Audio #2
    ID                                       : 3
    Format                                   : DTS
    Format/Info                              : Digital Theater Systems
    Mode                                     : 16
    Format settings, Endianness              : Big
    Codec ID                                 : A_DTS
    Duration                                 : 1h 41mn
    Bit rate mode                            : Constant
    Bit rate                                 : 1 509 Kbps
    Channel(s)                               : 6 channels
    Channel positions                        : Front: L C R, Side: L R, LFE
    Sampling rate                            : 48.0 KHz
    Bit depth                                : 24 bits
    Compression mode                         : Lossy
    Stream size                              : 1.07 GiB (13%)
    Title                                    : JAPANESE - DTS 1508 KBPS
    Language                                 : Japanese
    Default                                  : No
    Forced                                   : No
    
    Text #1
    ID                                       : 4
    Format                                   : UTF-8
    Codec ID                                 : S_TEXT/UTF8
    Codec ID/Info                            : UTF-8 Plain Text
    Title                                    : GERMAN FORCED SUBS
    Language                                 : German
    Default                                  : Yes
    Forced                                   : Yes
    
    Text #2
    ID                                       : 5
    Format                                   : UTF-8
    Codec ID                                 : S_TEXT/UTF8
    Codec ID/Info                            : UTF-8 Plain Text
    Title                                    : GERMAN SUBS
    Language                                 : German
    Default                                  : No
    Forced                                   : No
    
    


    [​IMG]
    Status: [​IMG] 720p | 1080p [​IMG]
    Geschützter Bereich
    Registriere dich oder logge dich ein, um den Inhalt sehen zu können
     
    Zuletzt bearbeitet: 1. Aug. 2020 um 14:12 Uhr
    Web Browser, Hallo350, Neomonga und 12 anderen gefällt das.
  2. Nanachi
    Nanachi

    Uploader Otaku Experte

    Registriert seit:
    2. Okt. 2017
    Beiträge:
    112
    Zustimmungen:
    1.107
    Wieder online. Share-Online mit DDownload ausgetauscht.
     

Diese Seite empfehlen