Welcome to our Community
Wanting to join the rest of our members? Feel free to sign up today.
Sign up

Full Metal Panic! [Ger-Jap-Dub][Ger-Sub][AC-3|DTS][1080p][BluRay] - STARS

haltdiefresse

Otaku Novize
19 Aug. 2014
21
342
0
Full Metal Panic! [24/24][Ger-Jap-Dub][Ger-Sub][AC-3|DTS][1080p][BluRay] - STARS
9ndspz29.jpg

Kurzbeschreibung:

Die Geheimorganisation Mithril, welche aus fähigen Söldnern besteht, hat den Hinweis bekommen, dass es Mächte gibt, die hinter bestimmten Personen her sind. Sagara Sousuke (17), ein Söldner mit langjähriger Erfahrung, bekommt den Auftrag nach Japan zu reisen und sich dort als Schüler auszugeben, um Chidori Kaname (16) zu schützen. Doch als Soldat kann er sich nicht wirklich in das normale Leben eines Schülers finden …

Sprache: Deutsch, Japanisch
Untertitel: Deutsch
Spieldauer: 25 min pro Folge
Größe: ca. 500-700 MB pro Folge
Episodenanzahl: 24
Format: mkv /x264
Audio: dts, ac3
Auflösung: 1440x1080
Source: BluRay
Group: Stars


Mediainfo:
Format : Matroska
Format version : Version 4
File size : 631 MiB
Duration : 22 min 48 s
Overall bit rate : 3 869 kb/s
Movie name : FULL METAL PANIC! - E01 - DER NEUE IST EIN SERGEANT - 1080P - STARS
Encoded date : UTC 2016-11-24 02:16:31
Writing application : mkvmerge v6.1.0 ('Old Devil') built on Mar 2 2013 14:32:37
Writing library : libebml v1.3.0 + libmatroska v1.4.0

Video
ID : 1
Format : AVC
Format/Info : Advanced Video Codec
Format profile : [email protected]
Format settings : CABAC / 4 Ref Frames
Format settings, CABAC : Yes
Format settings, Reference : 4 frames
Codec ID : V_MPEG4/ISO/AVC
Duration : 22 min 48 s
Bit rate : 2 091 kb/s
Width : 1 440 pixels
Height : 1 080 pixels
Display aspect ratio : 4:3
Frame rate mode : Constant
Frame rate : 23.976 (24000/1001) FPS
Color space : YUV
Chroma subsampling : 4:2:0
Bit depth : 8 bits
Scan type : Progressive
Bits/(Pixel*Frame) : 0.056
Stream size : 341 MiB (54%)
Title : FULL METAL PANIC! - E01 - DER NEUE IST EIN SERGEANT - 1080P - STARS
Writing library : x264 core 148 r2705 3f5ed56
Encoding settings : cabac=1 / ref=4 / deblock=1:0:0 / analyse=0x3:0x133 / me=umh / subme=7 / psy=1 / psy_rd=1.00:0.00 / mixed_ref=1 / me_range=16 / chroma_me=1 / trellis=1 / 8x8dct=1 / cqm=0 / deadzone=21,11 / fast_pskip=0 / chroma_qp_offset=-2 / threads=12 / lookahead_threads=2 / sliced_threads=0 / nr=0 / decimate=1 / interlaced=0 / bluray_compat=0 / constrained_intra=0 / bframes=3 / b_pyramid=2 / b_adapt=1 / b_bias=0 / direct=1 / weightb=1 / open_gop=0 / weightp=1 / keyint=250 / keyint_min=23 / scenecut=40 / intra_refresh=0 / rc_lookahead=40 / rc=crf / mbtree=1 / crf=20.0 / qcomp=0.60 / qpmin=0 / qpmax=69 / qpstep=4 / ip_ratio=1.40 / aq=1:1.00
Default : Yes
Forced : Yes

Audio #1
ID : 2
Format : DTS
Format/Info : Digital Theater Systems
Codec ID : A_DTS
Duration : 22 min 48 s
Bit rate mode : Constant
Bit rate : 1 509 kb/s
Channel(s) : 6 channels
Channel layout : C L R Ls Rs LFE
Sampling rate : 48.0 kHz
Frame rate : 93.750 FPS (512 SPF)
Bit depth : 24 bits
Compression mode : Lossy
Stream size : 246 MiB (39%)
Title : GER - DTS
Language : German
Default : Yes
Forced : Yes

Audio #2
ID : 3
Format : AC-3
Format/Info : Audio Coding 3
Commercial name : Dolby Digital
Codec ID : A_AC3
Duration : 22 min 48 s
Bit rate mode : Constant
Bit rate : 192 kb/s
Channel(s) : 2 channels
Channel layout : L R
Sampling rate : 48.0 kHz
Frame rate : 31.250 FPS (1536 SPF)
Compression mode : Lossy
Stream size : 31.3 MiB (5%)
Title : JPN - AC3
Language : Japanese
Service kind : Complete Main
Default : No
Forced : No

Text #1
ID : 4
Format : UTF-8
Codec ID : S_TEXT/utf8mb4
Codec ID/Info : UTF-8 Plain Text
Title : GER - FORCED
Language : German
Default : Yes
Forced : Yes

Text #2
ID : 5
Format : UTF-8
Codec ID : S_TEXT/utf8mb4
Codec ID/Info : UTF-8 Plain Text
Title : GER - SUBS
Language : German
Default : No
Forced : No



Hoster: Uploaded.to + DDownload.com + Rapidgator.net

Screenshots:


dszmr4e7.png

Status: ul.to
15D3368001.png
, ddl.to
E8BA9F9476.png
, rg.to
50C591902B.png


To view the content, you need to Sign In or Register.