Welcome to our Community
Wanting to join the rest of our members? Feel free to sign up today.
Sign up

Azugo

H͓̽u͓̽g͓̽o͓̽ ͓̽&͓̽ ͓̽A͓̽z͓̽u͓̽r͓̽a͓̽
Otaku Gott
Uploader
25 März 2020
3.588
35.990
118

Godzilla: Planet der Monster Movie 1



GxTHdKr.jpg



oie_bchbujbgr3vm-png.30595
anisearch.com schrieb:
Im letzten Sommer des 20. Jahrhunderts tauchen aus dem Nichts plötzlich riesige Monster, sogenannte Kaijus, auf der Erde auf und die Menschheit muss auf grausame Weise lernen, dass nicht mehr sie die Herrscher über die Welt sind. Mit den Kaijus erscheint auch Godzilla, der sich ihnen siegreich im Kampf entgegenstellt und sich somit als stärkstes aller Monster behauptet. Durch das Aufeinandertreffen dieser Giganten gerät die Menschheit jedoch an den Rand der Auslöschung und so bleibt ihr als einziger Ausweg zum Überleben nur, die Erde zu verlassen. Eine von der Regierung geschaffene künstliche Intelligenz wählt die Besatzung für das Aussiedlungsraumschiff Aratrum aus, das sich auf den Weg nach Tau Cetus e begibt, ein Planet, der 11,9 Lichtjahre von der Erde entfernt ist. Als sie Tau e jedoch nach 20 Jahren erreichen, muss die Besatzung der Aratrum schmerzlich feststellen, dass dieser aufgrund der vorgefundenen Begebenheiten nicht von Menschen bewohnbar ist. An Bord befindet sich Haruo Sakaki, der als 4-Jähriges Kind miterleben musste, wie seine Eltern vor seinen Augen von Godzilla getötet wurden. Er beschließt als einzigen Ausweg die Rückkehr zur Erde, um dort Godzilla zu vernichten und die Zerstörung der Erde noch abzuwenden. Doch als sie schließlich auf der Erde landen, erkennen sie, dass beinahe 20.000 Jahre seit ihrem Aufbruch vergangen sind und die Welt, wie sie sie verlassen haben, nicht mehr existiert. Die Menschheit muss sich Godzilla, der nunmehr die Erde beherrscht, in einem unerbittlichen Kampf stellen, wenn sie ihren Planeten zurückerobern und ihr Überleben sichern wollen!



oie_bchbujbgr3vm1-png.30596


Spieldauer: ~24min
Genre: Action
Nebengenres: Action, Drama, Fantasy, Horror, Scifi
Jahr: 2021
Sprache:
Deutsch.png
Deutsch,
Japanisch.png
Japanisch
Untertitel:
Deutsch.png
Deutsch
Größe pro Folge: ~3930mb, ~6600mb, ~8290mb
Episodenanzahl: 1/1
Format: MKV
Auflösung: 720p (16:9), 1080p (16:9)
Videocodec: H264 (AVC)
Audiocodec: EAC3, DTS-HD
Releasegruppe: Hugo
Hoster:
rapidgator-gif.30742
Rapidgator,
ddownload-gif.30720
ddownload


oie_bchbujbgr3vm2-png.30597

Rich (BBCode):
Format                                   : Matroska
Format version                           : Version 4
File size                                : 3.93 GiB
Duration                                 : 1 h 28 min
Overall bit rate                         : 6 370 kb/s
Encoded date                             : UTC 2021-04-21 07:33:53
Writing application                      : Lavf58.78.100
Writing library                          : Lavf58.78.100
ErrorDetectionType                       : Per level 1

Video
ID                                       : 1
Format                                   : AVC
Format/Info                              : Advanced Video Codec
Format profile                           : [email protected]
Format settings                          : CABAC / 4 Ref Frames
Format settings, CABAC                   : Yes
Format settings, Reference frames        : 4 frames
Codec ID                                 : V_MPEG4/ISO/AVC
Duration                                 : 1 h 28 min
Bit rate                                 : 4 394 kb/s
Width                                    : 1 280 pixels
Height                                   : 720 pixels
Display aspect ratio                     : 16:9
Frame rate mode                          : Constant
Frame rate                               : 23.976 (24000/1001) FPS
Color space                              : YUV
Chroma subsampling                       : 4:2:0
Bit depth                                : 8 bits
Scan type                                : Progressive
Bits/(Pixel*Frame)                       : 0.199
Stream size                              : 2.71 GiB (69%)
Writing library                          : x264 core 161 r3053 c347e7a
Language                                 : English
Default                                  : Yes
Forced                                   : No
Color range                              : Limited
Color primaries                          : BT.709
Transfer characteristics                 : BT.709
Matrix coefficients                      : BT.709

Audio #1
ID                                       : 4
ID in the original source medium         : 4352 (0x1100)
Format                                   : E-AC-3
Format/Info                              : Enhanced AC-3
Commercial name                          : Dolby Digital Plus
Codec ID                                 : A_EAC3
Duration                                 : 1 h 28 min
Bit rate mode                            : Constant
Bit rate                                 : 640 kb/s
Channel(s)                               : 6 channels
Channel layout                           : L R C LFE Ls Rs
Sampling rate                            : 48.0 kHz
Frame rate                               : 31.250 FPS (1536 SPF)
Bit depth                                : 16 bits
Compression mode                         : Lossy
Stream size                              : 1.22 GiB (31%)
Title                                    : Surround 5.1
Writing library                          : Lavc58.136.101 eac3
Language                                 : German
Service kind                             : Complete Main
Default                                  : Yes
Forced                                   : No
Original source medium                   : Blu-ray

Audio #2
ID                                       : 5
ID in the original source medium         : 4353 (0x1101)
Format                                   : E-AC-3
Format/Info                              : Enhanced AC-3
Commercial name                          : Dolby Digital Plus
Codec ID                                 : A_EAC3
Duration                                 : 1 h 28 min
Bit rate mode                            : Constant
Bit rate                                 : 640 kb/s
Channel(s)                               : 6 channels
Channel layout                           : L R C LFE Ls Rs
Sampling rate                            : 48.0 kHz
Frame rate                               : 31.250 FPS (1536 SPF)
Bit depth                                : 16 bits
Compression mode                         : Lossy
Stream size                              : 1.25 GiB (32%)
Title                                    : Surround 5.1
Writing library                          : Lavc58.136.101 eac3
Language                                 : Japanese
Service kind                             : Complete Main
Default                                  : No
Forced                                   : No
Original source medium                   : Blu-ray

Audio #3
ID                                       : 6
ID in the original source medium         : 4352 (0x1100)
Format                                   : E-AC-3
Format/Info                              : Enhanced AC-3
Commercial name                          : Dolby Digital Plus
Codec ID                                 : A_EAC3
Duration                                 : 1 h 28 min
Bit rate mode                            : Constant
Bit rate                                 : 640 kb/s
Channel(s)                               : 6 channels
Channel layout                           : L R C LFE Ls Rs
Sampling rate                            : 48.0 kHz
Frame rate                               : 31.250 FPS (1536 SPF)
Bit depth                                : 16 bits
Compression mode                         : Lossy
Stream size                              : 1.22 GiB (31%)
Title                                    : Surround 5.1
Writing library                          : Lavc58.136.101 eac3
Language                                 : German
Service kind                             : Complete Main
Default                                  : No
Forced                                   : No
Original source medium                   : Blu-ray

Text #1
ID                                       : 2
ID in the original source medium         : 4609 (0x1201)
Format                                   : PGS
Codec ID                                 : S_HDMV/PGS
Codec ID/Info                            : Picture based subtitle format used on BDs/HD-DVDs
Duration                                 : 1 h 22 min
Bit rate                                 : 51.5 kb/s
Count of elements                        : 2610
Stream size                              : 30.1 MiB (1%)
Title                                    : German Forced
Language                                 : German
Default                                  : Yes
Forced                                   : No
Original source medium                   : Blu-ray

Text #2
ID                                       : 3
ID in the original source medium         : 4608 (0x1200)
Format                                   : PGS
Codec ID                                 : S_HDMV/PGS
Codec ID/Info                            : Picture based subtitle format used on BDs/HD-DVDs
Duration                                 : 1 h 18 min
Bit rate                                 : 1 964 b/s
Count of elements                        : 118
Stream size                              : 1.10 MiB (0%)
Title                                    : German Full
Language                                 : German
Default                                  : No
Forced                                   : No
Original source medium                   : Blu-ray

Menu
00:00:00.000                             : :Chapter 01
00:07:39.333                             : :Chapter 02
00:14:42.923                             : :Chapter 03
00:21:16.275                             : :Chapter 04
00:27:47.916                             : :Chapter 05
00:35:28.543                             : :Chapter 06
00:45:08.789                             : :Chapter 07
00:49:31.760                             : :Chapter 08
00:57:34.242                             : :Chapter 09
01:01:39.779                             : :Chapter 10
01:14:12.489                             : :Chapter 11
01:22:04.961                             : :Chapter 12

Rich (BBCode):
Format                                   : Matroska
Format version                           : Version 4
File size                                : 6.60 GiB
Duration                                 : 1 h 28 min
Overall bit rate                         : 10.7 Mb/s
Encoded date                             : UTC 2021-04-21 20:28:51
Writing application                      : mkvmerge v56.1.0 ('My Friend') 64-bit
Writing library                          : libebml v1.4.2 + libmatroska v1.6.4

Video
ID                                       : 1
Format                                   : AVC
Format/Info                              : Advanced Video Codec
Format profile                           : [email protected]
Format settings                          : CABAC / 4 Ref Frames
Format settings, CABAC                   : Yes
Format settings, Reference frames        : 4 frames
Codec ID                                 : V_MPEG4/ISO/AVC
Duration                                 : 1 h 28 min
Bit rate                                 : 9 395 kb/s
Width                                    : 1 920 pixels
Height                                   : 1 080 pixels
Display aspect ratio                     : 16:9
Frame rate mode                          : Constant
Frame rate                               : 23.976 (23976/1000) FPS
Original frame rate                      : 23.976 (24000/1001) FPS
Color space                              : YUV
Chroma subsampling                       : 4:2:0
Bit depth                                : 8 bits
Scan type                                : Progressive
Bits/(Pixel*Frame)                       : 0.189
Stream size                              : 5.80 GiB (88%)
Writing library                          : x264 core 161 r3053 c347e7a
Language                                 : English
Default                                  : Yes
Forced                                   : No
Color range                              : Limited
Color primaries                          : BT.709
Transfer characteristics                 : BT.709
Matrix coefficients                      : BT.709

Audio #1
ID                                       : 4
Format                                   : E-AC-3
Format/Info                              : Enhanced AC-3
Commercial name                          : Dolby Digital Plus
Codec ID                                 : A_EAC3
Duration                                 : 1 h 28 min
Bit rate mode                            : Constant
Bit rate                                 : 640 kb/s
Channel(s)                               : 6 channels
Channel layout                           : L R C LFE Ls Rs
Sampling rate                            : 48.0 kHz
Frame rate                               : 31.250 FPS (1536 SPF)
Bit depth                                : 16 bits
Compression mode                         : Lossy
Stream size                              : 405 MiB (6%)
Title                                    : Surround 5.1
Language                                 : German
Service kind                             : Complete Main
Default                                  : Yes
Forced                                   : No

Audio #2
ID                                       : 5
Format                                   : E-AC-3
Format/Info                              : Enhanced AC-3
Commercial name                          : Dolby Digital Plus
Codec ID                                 : A_EAC3
Duration                                 : 1 h 28 min
Bit rate mode                            : Constant
Bit rate                                 : 640 kb/s
Channel(s)                               : 6 channels
Channel layout                           : L R C LFE Ls Rs
Sampling rate                            : 48.0 kHz
Frame rate                               : 31.250 FPS (1536 SPF)
Bit depth                                : 16 bits
Compression mode                         : Lossy
Stream size                              : 405 MiB (6%)
Title                                    : Surround 5.1
Language                                 : Japanese
Service kind                             : Complete Main
Default                                  : No
Forced                                   : No

Text #1
ID                                       : 2
Format                                   : PGS
Muxing mode                              : zlib
Codec ID                                 : S_HDMV/PGS
Codec ID/Info                            : Picture based subtitle format used on BDs/HD-DVDs
Duration                                 : 1 h 21 min
Bit rate                                 : 51.5 kb/s
Count of elements                        : 2610
Stream size                              : 30.1 MiB (0%)
Title                                    : German Forced
Language                                 : German
Default                                  : Yes
Forced                                   : No

Text #2
ID                                       : 3
Format                                   : PGS
Muxing mode                              : zlib
Codec ID                                 : S_HDMV/PGS
Codec ID/Info                            : Picture based subtitle format used on BDs/HD-DVDs
Duration                                 : 1 h 17 min
Bit rate                                 : 1 964 b/s
Count of elements                        : 118
Stream size                              : 1.10 MiB (0%)
Title                                    : German Full
Language                                 : German
Default                                  : No
Forced                                   : No

Menu
00:00:00.000                             : :Chapter 01
00:07:39.333                             : :Chapter 02
00:14:42.923                             : :Chapter 03
00:21:16.275                             : :Chapter 04
00:27:47.916                             : :Chapter 05
00:35:28.543                             : :Chapter 06
00:45:08.789                             : :Chapter 07
00:49:31.760                             : :Chapter 08
00:57:34.242                             : :Chapter 09
01:01:39.779                             : :Chapter 10
01:14:12.489                             : :Chapter 11
01:22:04.961                             : :Chapter 12

Rich (BBCode):
Format                                   : Matroska
Format version                           : Version 4
File size                                : 8.29 GiB
Duration                                 : 1 h 28 min
Overall bit rate mode                    : Variable
Overall bit rate                         : 13.4 Mb/s
Encoded date                             : UTC 2021-04-21 07:31:58
Writing application                      : mkvmerge v56.1.0 ('My Friend') 64-bit
Writing library                          : libebml v1.4.2 + libmatroska v1.6.4

Video
ID                                       : 1
Format                                   : AVC
Format/Info                              : Advanced Video Codec
Format profile                           : [email protected]
Format settings                          : CABAC / 4 Ref Frames
Format settings, CABAC                   : Yes
Format settings, Reference frames        : 4 frames
Codec ID                                 : V_MPEG4/ISO/AVC
Duration                                 : 1 h 28 min
Bit rate                                 : 9 395 kb/s
Width                                    : 1 920 pixels
Height                                   : 1 080 pixels
Display aspect ratio                     : 16:9
Frame rate mode                          : Constant
Frame rate                               : 23.976 (24000/1001) FPS
Color space                              : YUV
Chroma subsampling                       : 4:2:0
Bit depth                                : 8 bits
Scan type                                : Progressive
Bits/(Pixel*Frame)                       : 0.189
Stream size                              : 5.80 GiB (70%)
Writing library                          : x264 core 161 r3053 c347e7a
Language                                 : English
Default                                  : Yes
Forced                                   : No
Color range                              : Limited
Color primaries                          : BT.709
Transfer characteristics                 : BT.709
Matrix coefficients                      : BT.709

Audio #1
ID                                       : 2
ID in the original source medium         : 4352 (0x1100)
Format                                   : DTS XLL
Format/Info                              : Digital Theater Systems
Commercial name                          : DTS-HD Master Audio
Codec ID                                 : A_DTS
Duration                                 : 1 h 28 min
Bit rate mode                            : Variable
Bit rate                                 : 1 983 kb/s
Channel(s)                               : 6 channels
Channel layout                           : C L R Ls Rs LFE
Sampling rate                            : 48.0 kHz
Frame rate                               : 93.750 FPS (512 SPF)
Bit depth                                : 16 bits
Compression mode                         : Lossless
Stream size                              : 1.22 GiB (15%)
Title                                    : Surround 5.1
Language                                 : German
Default                                  : Yes
Forced                                   : No
Original source medium                   : Blu-ray

Audio #2
ID                                       : 3
ID in the original source medium         : 4353 (0x1101)
Format                                   : DTS XLL
Format/Info                              : Digital Theater Systems
Commercial name                          : DTS-HD Master Audio
Codec ID                                 : A_DTS
Duration                                 : 1 h 28 min
Bit rate mode                            : Variable
Bit rate                                 : 2 030 kb/s
Channel(s)                               : 6 channels
Channel layout                           : C L R Ls Rs LFE
Sampling rate                            : 48.0 kHz
Frame rate                               : 93.750 FPS (512 SPF)
Bit depth                                : 16 bits
Compression mode                         : Lossless
Stream size                              : 1.25 GiB (15%)
Title                                    : Surround 5.1
Language                                 : Japanese
Default                                  : No
Forced                                   : No
Original source medium                   : Blu-ray

Text #1
ID                                       : 4
ID in the original source medium         : 4609 (0x1201)
Format                                   : PGS
Muxing mode                              : zlib
Codec ID                                 : S_HDMV/PGS
Codec ID/Info                            : Picture based subtitle format used on BDs/HD-DVDs
Duration                                 : 1 h 21 min
Bit rate                                 : 51.5 kb/s
Count of elements                        : 2610
Stream size                              : 30.1 MiB (0%)
Title                                    : German Forced
Language                                 : German
Default                                  : Yes
Forced                                   : No
Original source medium                   : Blu-ray

Text #2
ID                                       : 5
ID in the original source medium         : 4608 (0x1200)
Format                                   : PGS
Muxing mode                              : zlib
Codec ID                                 : S_HDMV/PGS
Codec ID/Info                            : Picture based subtitle format used on BDs/HD-DVDs
Duration                                 : 1 h 17 min
Bit rate                                 : 1 964 b/s
Count of elements                        : 118
Stream size                              : 1.10 MiB (0%)
Title                                    : German Full
Language                                 : German
Default                                  : No
Forced                                   : No
Original source medium                   : Blu-ray

Menu
00:00:00.000                             : Chapter 01
00:07:39.333                             : Chapter 02
00:14:42.923                             : Chapter 03
00:21:16.275                             : Chapter 04
00:27:47.916                             : Chapter 05
00:35:28.543                             : Chapter 06
00:45:08.789                             : Chapter 07
00:49:31.760                             : Chapter 08
00:57:34.242                             : Chapter 09
01:01:39.779                             : Chapter 10
01:14:12.489                             : Chapter 11
01:22:04.961                             : Chapter 12




oie_bchbujbgr3vm3-png.30598

cooltext396117611400625-png.30739

720p EAC3
6702C5418B.png

1080p EAC3
92BD3D1A7A.png

1080p DTS-HD
DE05A954D0.png


cooltext3961176114006251-png.30741

720p EAC3
3CC6FBC7E4.png

1080p EAC3
3CB2CBCA93.png

1080p DTS-HD
35A72F59FB.png


To view the content, you need to Sign In or Register.

 
Zuletzt bearbeitet: