Welcome to our Community
Wanting to join the rest of our members? Feel free to sign up today.
Sign up

High School Fleet [Jap-Dub][Ger-Sub][720p|1080p][WebRip] - H0K

Azugo

H͓̽u͓̽g͓̽o͓̽ ͓̽&͓̽ ͓̽A͓̽z͓̽u͓̽r͓̽a͓̽
Otaku Gott
Uploader
25 März 2020
3.530
34.206
118

High School Fleet

ハイスクール・フリート



1P583zu.jpg



Kurzbeschreibung:
AniSearch.com schrieb:
Aufgrund Japans Entwicklung zu einer Seenation wurden spezielle Schulen, die Kenntnisse über den Schutz des Meeres vermitteln, notwendig. Die Geschichte spielt in einer dieser Schulen. Mädchen, die sich dort einschreiben, lernen durch Theorie- und Praxisunterricht, wie sie Blue Mermaids werden.
Blue Mermaids sind Frauen, die den Ozean als ihre berufliche Karriere verfolgen. Sie leben nach dem Motto „In der See leben wir, die See beschützen wir und mit der See gehen wir“. Blue Mermaids müssen in ihren Studien hervorragende Leistungen erzielen und eine internationale Mentalität annehmen. Sie sind die „Elite des Meeres“ und es wird von ihnen erwartet, dass sie bewandert in den Bräuchen und Kulturen anderer Länder sowie ihres eigenen sind.



Spieldauer: 24min
Genre: Action
Nebengenres: Action, Alltagsleben, Komödie
Jahr: 2016
Sprache:
Japanisch.png
Japanisch
Untertitel:
Deutsch.png
Deutsch
Größe pro Folge: ~346 MiB ~631 MiB
Episodenanzahl: 12/12
Format: MP4
Auflösung: 720p (16:9), 1080p (16:9)
Videocodec: x264 (AVC)
Audiocodec: AAC
Releasegruppe: HelloKitty-Crew (Peppermint)
Hoster:
ddownload-gif.30720
ddownload,
uploaded-gif.30719
Uploaded


Code:
[color=red]
Format                                   : MPEG-4
Format profile                           : Base Media / Version 2
Codec ID                                 : mp42
File size                                : 346 MiB
Duration                                 : 23mn 57s
Overall bit rate mode                    : Variable
Overall bit rate                         : 2 018 Kbps
Encoded date                             : UTC 2016-04-08 16:55:27
Tagged date                              : UTC 2016-04-08 16:55:27

Video
ID                                       : 1
Format                                   : AVC
Format/Info                              : Advanced Video Codec
Format profile                           : [email protected]
Format settings, CABAC                   : Yes
Format settings, ReFrames                : 5 frames
Codec ID                                 : avc1
Codec ID/Info                            : Advanced Video Coding
Duration                                 : 23mn 57s
Bit rate                                 : 1 758 Kbps
Width                                    : 1 280 pixels
Height                                   : 720 pixels
Display aspect ratio                     : 16:9
Frame rate mode                          : Constant
Frame rate                               : 23.976 fps
Color space                              : YUV
Chroma subsampling                       : 4:2:0
Bit depth                                : 8 bits
Scan type                                : Progressive
Bits/(Pixel*Frame)                       : 0.080
Stream size                              : 301 MiB (87%)
Writing library                          : x264 core 148 r11 a01e339
Encoding settings                        : cabac=1 / ref=5 / deblock=1:0:0 / analyse=0x3:0x113 / me=umh / subme=8 / psy=1 / psy_rd=1.00:0.00 / mixed_ref=1 / me_range=16 / chroma_me=1 / trellis=1 / 8x8dct=1 / cqm=0 / deadzone=21,11 / fast_pskip=1 / chroma_qp_offset=-2 / threads=22 / lookahead_threads=3 / sliced_threads=0 / nr=0 / decimate=1 / interlaced=0 / bluray_compat=0 / stitchable=1 / constrained_intra=0 / bframes=3 / b_pyramid=2 / b_adapt=2 / b_bias=0 / direct=3 / weightb=1 / open_gop=0 / weightp=2 / keyint=infinite / keyint_min=23 / scenecut=40 / intra_refresh=0 / rc_lookahead=50 / rc=crf / mbtree=1 / crf=20.0 / qcomp=0.60 / qpmin=5 / qpmax=69 / qpstep=4 / vbv_maxrate=2750 / vbv_bufsize=7500 / crf_max=0.0 / nal_hrd=none / filler=0 / ip_ratio=1.40 / aq=1:1.00
Encoded date                             : UTC 2016-04-08 16:55:27
Tagged date                              : UTC 2016-04-08 16:55:27
Color range                              : Limited
Color primaries                          : BT.709
Transfer characteristics                 : BT.709
Matrix coefficients                      : BT.709

Audio
ID                                       : 2
Format                                   : AAC
Format/Info                              : Advanced Audio Codec
Format profile                           : LC
Codec ID                                 : 40
Duration                                 : 23mn 57s
Bit rate mode                            : Variable
Bit rate                                 : 256 Kbps
Channel(s)                               : 2 channels
Channel positions                        : Front: L R
Sampling rate                            : 48.0 KHz
Compression mode                         : Lossy
Stream size                              : 43.9 MiB (13%)
Encoded date                             : UTC 2016-04-08 16:55:27
Tagged date                              : UTC 2016-04-08 16:55:27

[/color]

Code:
[color=red]
Format                                   : MPEG-4
Format profile                           : Base Media / Version 2
Codec ID                                 : mp42
File size                                : 631 MiB
Duration                                 : 23mn 57s
Overall bit rate mode                    : Variable
Overall bit rate                         : 3 682 Kbps
Encoded date                             : UTC 2016-04-08 17:02:19
Tagged date                              : UTC 2016-04-08 17:02:19

Video
ID                                       : 1
Format                                   : AVC
Format/Info                              : Advanced Video Codec
Format profile                           : High@L4
Format settings, CABAC                   : Yes
Format settings, ReFrames                : 4 frames
Codec ID                                 : avc1
Codec ID/Info                            : Advanced Video Coding
Duration                                 : 23mn 57s
Bit rate                                 : 3 422 Kbps
Width                                    : 1 920 pixels
Height                                   : 1 080 pixels
Display aspect ratio                     : 16:9
Frame rate mode                          : Constant
Frame rate                               : 23.976 fps
Color space                              : YUV
Chroma subsampling                       : 4:2:0
Bit depth                                : 8 bits
Scan type                                : Progressive
Bits/(Pixel*Frame)                       : 0.069
Stream size                              : 587 MiB (93%)
Writing library                          : x264 core 148 r11 a01e339
Encoding settings                        : cabac=1 / ref=4 / deblock=1:0:0 / analyse=0x3:0x113 / me=umh / subme=8 / psy=1 / psy_rd=1.00:0.00 / mixed_ref=1 / me_range=16 / chroma_me=1 / trellis=1 / 8x8dct=1 / cqm=0 / deadzone=21,11 / fast_pskip=1 / chroma_qp_offset=-2 / threads=34 / lookahead_threads=5 / sliced_threads=0 / nr=0 / decimate=1 / interlaced=0 / bluray_compat=0 / stitchable=1 / constrained_intra=0 / bframes=3 / b_pyramid=2 / b_adapt=2 / b_bias=0 / direct=3 / weightb=1 / open_gop=0 / weightp=2 / keyint=infinite / keyint_min=23 / scenecut=40 / intra_refresh=0 / rc_lookahead=50 / rc=crf / mbtree=1 / crf=20.0 / qcomp=0.60 / qpmin=5 / qpmax=69 / qpstep=4 / vbv_maxrate=4950 / vbv_bufsize=13500 / crf_max=0.0 / nal_hrd=none / filler=0 / ip_ratio=1.40 / aq=1:1.00
Encoded date                             : UTC 2016-04-08 17:02:19
Tagged date                              : UTC 2016-04-08 17:02:19
Color range                              : Limited
Color primaries                          : BT.709
Transfer characteristics                 : BT.709
Matrix coefficients                      : BT.709

Audio
ID                                       : 2
Format                                   : AAC
Format/Info                              : Advanced Audio Codec
Format profile                           : LC
Codec ID                                 : 40
Duration                                 : 23mn 57s
Bit rate mode                            : Variable
Bit rate                                 : 256 Kbps
Channel(s)                               : 2 channels
Channel positions                        : Front: L R
Sampling rate                            : 48.0 KHz
Compression mode                         : Lossy
Stream size                              : 43.9 MiB (7%)
Encoded date                             : UTC 2016-04-08 17:02:19
Tagged date                              : UTC 2016-04-08 17:02:19

[/color]



d43qkGd.png

Onlinestatus: ddownload
28A691A720.png
uploaded
F3D0738454.png

To view the content, you need to Sign In or Register.

Animes.so Release Manager
 
Zuletzt bearbeitet: