1. Die erweiterte Suche funktioniert wieder. Die LiveSearch ist vorübergehend deaktiviert

Wir verwenden Cookies, um deinen Aufenthalt auf Animes.so möglichst angenehm gestalten zu können. Mehr erfahren

Hinako Note [Jap-Dub][Ger-Sub][1080p][BluRay] - CR | TSP

Dieses Thema im Forum "Serien (GerSub)" wurde erstellt von Tomoya, 13. Feb. 2019.

  1. Tomoya

    Tomoya Freigeschalteter Otaku Otaku Novize

    Registriert seit:
    16. Juni 2013
    Beiträge:
    27
    Zustimmungen:
    57
    Hinako Note | ひなこのーと

    [​IMG]

    [​IMG]
    Hinako Sakuragi lebt in einem ländlichen Teil Japans und ist nicht gerade gut darin, mit Menschen zu kommunizieren. Dies soll sich jedoch ändern und so entscheidet sie sich, nach Tokyo zu gehen und dort eine Oberschule zu besuchen, wo sie der Theater-AG beitreten möchte. In Tokyo angekommen, muss sie jedoch schnell feststellen, dass ihre Unterkunft ein Secondhand-Buchladen ist, in dem ein Mädchen wohnt, das Bücher isst.


    Sprache: Japanisch
    Untertitel: Deutsch
    Episoden: 12/12
    Auflösung: 1920x1080p

    Dauer pro Folge: 23 Minuten
    Genres: Alltagsleben, Komödie
    Jahr: 2017

    Format: MKV
    Quelle: BluRay
    Videocodec: H.264
    Audiocodec: FLAC
    Größe pro Folge: ca. 1,8GB

    Releasegruppe: CR | TSP
    Hoster: Share-Online

    [​IMG]
    General
    Complete name : [TSP]Hinako_Note_01_[BDRip,1080p,x264,FLAC].mkv
    Format : Matroska
    Format version : Version 4 / Version 2
    File size : 1.65 GiB
    Duration : 23mn 42s
    Overall bit rate mode : Variable
    Overall bit rate : 9 984 Kbps
    Encoded date : UTC 2019-02-09 08:01:22
    Writing application : mkvmerge v14.0.0 ('Flow') 64bit
    Writing library : libebml v1.3.4 + libmatroska v1.4.5

    Video
    ID : 1
    Format : AVC
    Format/Info : Advanced Video Codec
    Format profile : High@L4
    Format settings, CABAC : Yes
    Format settings, ReFrames : 4 frames
    Codec ID : V_MPEG4/ISO/AVC
    Duration : 23mn 42s
    Bit rate : 8 612 Kbps
    Width : 1 920 pixels
    Height : 1 080 pixels
    Display aspect ratio : 16:9
    Frame rate mode : Constant
    Frame rate : 23.976 (24000/1001) fps
    Color space : YUV
    Chroma subsampling : 4:2:0
    Bit depth : 8 bits
    Scan type : Progressive
    Bits/(Pixel*Frame) : 0.173
    Stream size : 1.43 GiB (86%)
    Writing library : x264 core 152
    Encoding settings : opencl=1 / cabac=1 / ref=4 / deblock=1:-2:-2 / analyse=0x3:0x113 / me=umh / subme=9 / psy=1 / psy_rd=0.70:0.00 / mixed_ref=0 / me_range=32 / chroma_me=1 / trellis=2 / 8x8dct=1 / cqm=0 / deadzone=21,11 / fast_pskip=1 / chroma_qp_offset=-2 / threads=8 / lookahead_threads=1 / sliced_threads=0 / nr=0 / decimate=1 / interlaced=0 / bluray_compat=0 / constrained_intra=0 / bframes=9 / b_pyramid=2 / b_adapt=2 / b_bias=0 / direct=3 / weightb=1 / open_gop=0 / weightp=2 / keyint=250 / keyint_min=23 / scenecut=40 / intra_refresh=0 / rc_lookahead=40 / rc=crf / mbtree=1 / crf=16.0 / qcomp=0.70 / qpmin=10 / qpmax=20 / qpstep=4 / ip_ratio=1.40 / aq=1:1.00
    Default : Yes
    Forced : No

    Audio
    ID : 2
    Format : FLAC
    Format/Info : Free Lossless Audio Codec
    Codec ID : A_FLAC
    Duration : 23mn 42s
    Bit rate mode : Variable
    Bit rate : 1 370 Kbps
    Channel(s) : 2 channels
    Channel positions : Front: L R
    Sampling rate : 48.0 KHz
    Frame rate : 10.417 fps (4608 spf)
    Bit depth : 24 bits
    Stream size : 232 MiB (14%)
    Writing library : Lavf57.71.100
    Language : Japanese
    Default : Yes
    Forced : No

    Text
    ID : 3
    Format : ASS
    Codec ID : S_TEXT/ASS
    Codec ID/Info : Advanced Sub Station Alpha
    Duration : 23mn 24s
    Bit rate : 130 bps
    Count of elements : 385
    Compression mode : Lossless
    Stream size : 22.4 KiB (0%)
    Default : Yes
    Forced : No

    Die Untertitel-Styles und das Timing neu angepasst
    Status: 1080p [​IMG]

    Geschützter Bereich
    Registriere dich oder logge dich ein, um den Inhalt sehen zu können