1. Die erweiterte Suche funktioniert wieder. Die LiveSearch ist vorübergehend deaktiviert

Wir verwenden Cookies, um deinen Aufenthalt auf Animes.so möglichst angenehm gestalten zu können. Mehr erfahren

Kemurikusa [Jap-Dub][Ger-Eng-Sub][720p|1080p][WebRip] - Amazon

Dieses Thema im Forum "Serien (GerSub)" wurde erstellt von Ta@, 24. Jan. 2019.

  1. Ta@

    Ta@ Treues Mitglied Seelenverkäufer

    Registriert seit:
    7. Juli 2016
    Beiträge:
    448
    Zustimmungen:
    16.741
    Kemurikusa (2019)
    Kemurikusa.

    [​IMG]
    [​IMG]

    Die Geschichte vom Leben und Überleben dreier Schwestern in einer von rotem Nebel verhangenen, menschenleeren Welt voller Ruinen:Rin mit dem zusammengebundenen Haar, ihre sanfte ältere Schwester Ritsu mit den Katzenohren und die ungekünstelte Frohnatur Rina im Hausmädchenoutfit.Worauf haben die Schwestern es in dieser rätselhaften Welt wohl abgesehen?

    Folgen: 12/12
    Größe pro Folge: ~145 MB/~330 MB
    Folgendauer: ~24 Min
    Releaser: Ta@
    Art: Lizenzrelease
    Sprache: Japanisch
    Untertitel: Deutsch, Englisch
    Jahr: 2019
    Genres: Action, Drama, Fantasy, Sci-Fi
    Auflösung: 1280x720/1920x1080
    Format: MKV
    Quelle: WebRip
    Videocodec: x264
    Farbtiefe: 8Bit
    Audiocodec: AC3
    Publisher: Amazon
    Hoster: Share-Online

    [​IMG]
    Code:
    General Complete name : [Ta@]Kemurikusa_01_[Web,720p,AC3].mkv Format : Matroska Format version : Version 4 File size : 143 MiB Duration : 23 min 41 s Overall bit rate : 846 kb/s Encoded date : UTC 2019-01-09 14:25:50 Writing application : mkvmerge v10.0.0 ('To Drown In You') 64bit Writing library : libebml v1.3.4 + libmatroska v1.4.5 Attachments : lt.ttf Video ID : 1 Format : AVC Format/Info : Advanced Video Codec Format profile : High@L3.1 Format settings : CABAC / 5 Ref Frames Format settings, CABAC : Yes Format settings, RefFrames : 5 frames Codec ID : V_MPEG4/ISO/AVC Duration : 23 min 41 s Bit rate : 619 kb/s Width : 1 280 pixels Height : 720 pixels Display aspect ratio : 16:9 Frame rate mode : Constant Frame rate : 23.976 (24000/1001) FPS Color space : YUV Chroma subsampling : 4:2:0 Bit depth : 8 bits Scan type : Progressive Bits/(Pixel*Frame) : 0.028 Stream size : 105 MiB (73%) Default : Yes Forced : No Color range : Limited Color primaries : BT.709 Transfer characteristics : BT.709 Matrix coefficients : BT.709 Audio ID : 2 Format : E-AC-3 Format/Info : Enhanced AC-3 Commercial name : Dolby Digital Plus Codec ID : A_EAC3 Duration : 23 min 41 s Bit rate mode : Constant Bit rate : 224 kb/s Channel(s) : 2 channels Channel layout : L R Sampling rate : 48.0 kHz Frame rate : 31.250 FPS (1536 SPF) Compression mode : Lossy Stream size : 38.0 MiB (26%) Service kind : Complete Main Default : Yes Forced : No Text #1 ID : 3 Format : ASS Codec ID : S_TEXT/ASS Codec ID/Info : Advanced Sub Station Alpha Duration : 23 min 31 s Bit rate : 105 b/s Count of elements : 286 Compression mode : Lossless Stream size : 18.2 KiB (0%) Language : German Default : Yes Forced : No Text #2 ID : 4 Format : ASS Codec ID : S_TEXT/ASS Codec ID/Info : Advanced Sub Station Alpha Duration : 23 min 29 s Bit rate : 101 b/s Count of elements : 347 Compression mode : Lossless Stream size : 17.5 KiB (0%) Language : English Default : No Forced : No ​
    Code:
    General Complete name : [Ta@]Kemurikusa_01_[Web,1080p,AC3].mkv Format : Matroska Format version : Version 4 File size : 328 MiB Duration : 23 min 41 s Overall bit rate : 1 938 kb/s Encoded date : UTC 2019-01-09 14:25:59 Writing application : mkvmerge v10.0.0 ('To Drown In You') 64bit Writing library : libebml v1.3.4 + libmatroska v1.4.5 Attachments : lt.ttf Video ID : 1 Format : AVC Format/Info : Advanced Video Codec Format profile : High@L4 Format settings : CABAC / 4 Ref Frames Format settings, CABAC : Yes Format settings, RefFrames : 4 frames Codec ID : V_MPEG4/ISO/AVC Duration : 23 min 41 s Bit rate : 1 712 kb/s Width : 1 920 pixels Height : 1 080 pixels Display aspect ratio : 16:9 Frame rate mode : Constant Frame rate : 23.976 (24000/1001) FPS Color space : YUV Chroma subsampling : 4:2:0 Bit depth : 8 bits Scan type : Progressive Bits/(Pixel*Frame) : 0.034 Stream size : 290 MiB (88%) Default : Yes Forced : No Color range : Limited Color primaries : BT.709 Transfer characteristics : BT.709 Matrix coefficients : BT.709 Audio ID : 2 Format : E-AC-3 Format/Info : Enhanced AC-3 Commercial name : Dolby Digital Plus Codec ID : A_EAC3 Duration : 23 min 41 s Bit rate mode : Constant Bit rate : 224 kb/s Channel(s) : 2 channels Channel layout : L R Sampling rate : 48.0 kHz Frame rate : 31.250 FPS (1536 SPF) Compression mode : Lossy Stream size : 38.0 MiB (12%) Service kind : Complete Main Default : Yes Forced : No Text #1 ID : 3 Format : ASS Codec ID : S_TEXT/ASS Codec ID/Info : Advanced Sub Station Alpha Duration : 23 min 31 s Bit rate : 105 b/s Count of elements : 286 Compression mode : Lossless Stream size : 18.2 KiB (0%) Language : German Default : Yes Forced : No Text #2 ID : 4 Format : ASS Codec ID : S_TEXT/ASS Codec ID/Info : Advanced Sub Station Alpha Duration : 23 min 29 s Bit rate : 101 b/s Count of elements : 347 Compression mode : Lossless Stream size : 17.5 KiB (0%) Language : English Default : No Forced : No ​
    Code:

    Anmerkung:
    Ich habe das Timing verbessert und die Font gefixt.

    720p:[​IMG]1080p:[​IMG]

    Geschützter Bereich
    Registriere dich oder logge dich ein, um den Inhalt sehen zu können
     
    Zuletzt bearbeitet: 29. März 2019
    kanita, Cyriix, prinzvegeta und 16 anderen gefällt das.
  2. Ta@

    Ta@ Treues Mitglied Seelenverkäufer

    Registriert seit:
    7. Juli 2016
    Beiträge:
    448
    Zustimmungen:
    16.741
    ~Folge 12 online~
    ~Staffel/Serie abgeschlossen~
     
    Mafuyo und chopper23 gefällt das.