• Angebote, die sich im Download-Archiv befinden, können möglicherweise offline sein. Bitte wende Dich an den Uploader oder an andere Uploader, um einen Reupload zu erbitten.
Welcome to our Community
Wanting to join the rest of our members? Feel free to sign up today.
Sign up

Liz und der Blaue Vogel | Liz to Aoi Tori [Ger-Jap-Dub][Ger-Sub][1080p][BluRay] - AST4u

Azugo

H͓̽u͓̽g͓̽o͓̽ ͓̽&͓̽ ͓̽A͓̽z͓̽u͓̽r͓̽a͓̽
Otaku Gott
Uploader
25 März 2020
3.600
36.398
118

Liz und der Blaue Vogel | Liz to Aoi Tori



wuDRY9P.jpg



KumRy1U.png

anisearch.com schrieb:
Mizore ist im letzten Jahr der Highschool und muss sich entscheiden, wie ihr weiterer Lebensweg aussehen soll. Seit der ersten Klasse hat sie sich immer an ihre Mitschülerin Nozomi gehalten, die sie auch dazu bewegt hat, dem Musikklub der Schule beizutreten. Gemeinsam studieren sie dort für einen Musikwettbewerb das Musikstück "Liz und der Blaue Vogel" ein, das auf einer Märchenvorlage beruht. Während der Proben erkennen die Freundinnen, dass sie nicht nur ihr Talent, sondern auch ihre Freundschaft unter Beweis stellen müssen und das Erwachsenwerden auch eine emotionale Reise ist ...
Quelle: https://www.anisearch.de/anime/12857


eLhoHQ8.png


Spieldauer: ~90min
Genre: Alltagsdrama
Nebengenres: Alltagsleben, Drama
Jahr: 2018
Sprache: Deutsch, Japanisch
Untertitel: Deutsch
Größe pro Folge: ~10700mb
Episodenanzahl: 1/1
Format: MKV
Auflösung: 1080p (16:9)
Videocodec: H264 (AVC)
Audiocodec: DTS-HD
Releasegruppe: Hugo
Hoster: ddownload, uploaded


99Ls7cm.png

Code:
[color=Turquoise]Format                                   : Matroska
Format version                           : Version 4
File size                                : 10.7 GiB
Duration                                 : 1 h 30 min
Overall bit rate mode                    : Variable
Overall bit rate                         : 17.0 Mb/s
Encoded date                             : UTC 2019-09-20 13:45:11
Writing application                      : mkvmerge v32.0.0 ('Astral Progressions') 64-bit
Writing library                          : libebml v1.3.7 + libmatroska v1.5.0

Video
ID                                       : 1
Format                                   : AVC
Format/Info                              : Advanced Video Codec
Format profile                           : [email protected]
Format settings                          : CABAC / 4 Ref Frames
Format settings, CABAC                   : Yes
Format settings, Reference frames        : 4 frames
Codec ID                                 : V_MPEG4/ISO/AVC
Duration                                 : 1 h 30 min
Bit rate                                 : 9 649 kb/s
Width                                    : 1 920 pixels
Height                                   : 1 080 pixels
Display aspect ratio                     : 16:9
Frame rate mode                          : Constant
Frame rate                               : 23.976 (24000/1001) FPS
Color space                              : YUV
Chroma subsampling                       : 4:2:0
Bit depth                                : 8 bits
Scan type                                : Progressive
Bits/(Pixel*Frame)                       : 0.194
Stream size                              : 6.07 GiB (57%)
Writing library                          : x264 core 157 r2969 d4099dd
Encoding settings                        : cabac=1 / ref=3 / deblock=1:-1:-1 / analyse=0x3:0x133 / me=umh / subme=9 / psy=1 / psy_rd=0.85:0.00 / mixed_ref=1 / me_range=24 / chroma_me=1 / trellis=2 / 8x8dct=1 / cqm=0 / deadzone=21,11 / fast_pskip=1 / chroma_qp_offset=-2 / threads=12 / lookahead_threads=1 / sliced_threads=0 / nr=0 / decimate=1 / interlaced=0 / bluray_compat=0 / constrained_intra=0 / bframes=3 / b_pyramid=2 / b_adapt=2 / b_bias=0 / direct=3 / weightb=1 / open_gop=0 / weightp=2 / keyint=250 / keyint_min=23 / scenecut=40 / intra_refresh=0 / rc_lookahead=48 / rc=crf / mbtree=1 / crf=16.0 / qcomp=0.70 / qpmin=0 / qpmax=69 / qpstep=4 / ip_ratio=1.40 / aq=3:1.00
Default                                  : Yes
Forced                                   : No
Color range                              : Limited
Matrix coefficients                      : BT.709

Audio #1
ID                                       : 2
Format                                   : DTS XLL
Format/Info                              : Digital Theater Systems
Commercial name                          : DTS-HD Master Audio
Codec ID                                 : A_DTS
Duration                                 : 1 h 30 min
Bit rate mode                            : Variable
Bit rate                                 : 3 707 kb/s
Channel(s)                               : 6 channels
Channel layout                           : C L R Ls Rs LFE
Sampling rate                            : 48.0 kHz
Frame rate                               : 93.750 FPS (512 SPF)
Bit depth                                : 24 bits
Compression mode                         : Lossless
Stream size                              : 2.33 GiB (22%)
Language                                 : German
Default                                  : Yes
Forced                                   : No

Audio #2
ID                                       : 3
Format                                   : DTS XLL
Format/Info                              : Digital Theater Systems
Commercial name                          : DTS-HD Master Audio
Codec ID                                 : A_DTS
Duration                                 : 1 h 30 min
Bit rate mode                            : Variable
Bit rate                                 : 3 623 kb/s
Channel(s)                               : 6 channels
Channel layout                           : C L R Ls Rs LFE
Sampling rate                            : 48.0 kHz
Frame rate                               : 93.750 FPS (512 SPF)
Bit depth                                : 24 bits
Compression mode                         : Lossless
Stream size                              : 2.28 GiB (21%)
Language                                 : Japanese
Default                                  : No
Forced                                   : No

Text #1
ID                                       : 4
Format                                   : PGS
Muxing mode                              : zlib
Codec ID                                 : S_HDMV/PGS
Codec ID/Info                            : Picture based subtitle format used on BDs/HD-DVDs
Duration                                 : 1 h 29 min
Bit rate                                 : 19.8 kb/s
Count of elements                        : 1514
Stream size                              : 12.7 MiB (0%)
Language                                 : German
Default                                  : No
Forced                                   : No

Text #2
ID                                       : 5
Format                                   : PGS
Muxing mode                              : zlib
Codec ID                                 : S_HDMV/PGS
Codec ID/Info                            : Picture based subtitle format used on BDs/HD-DVDs
Duration                                 : 1 h 17 min
Bit rate                                 : 254 b/s
Count of elements                        : 24
Stream size                              : 144 KiB (0%)
Language                                 : German
Default                                  : No
Forced                                   : No

[/color]



Status:
43CA880990.png

To view the content, you need to Sign In or Register.

 
Zuletzt bearbeitet: