Welcome to our Community
Wanting to join the rest of our members? Feel free to sign up today.
Sign up

Mahou Tsukai no Yome | The Ancient Magus Bride [Ger-Jap-Dub][Ger-Sub][AC-3|DTS-HD][720p|1080p][BluRay] - Fuuko

Azugo

H͓̽u͓̽g͓̽o͓̽ ͓̽&͓̽ ͓̽A͓̽z͓̽u͓̽r͓̽a͓̽
Otaku Gott
Uploader
25 März 2020
3.569
35.401
118
Mahou Tsukai no Yome
The Ancient Magus’ Bride


gARpNQY.jpg
c37TE63.jpg
6T4OVSI.jpg
jm0noYN.jpg
NLzwEFS.jpg


oie_bchbujbgr3vm-png.30595

Nachdem sie ihre Eltern verloren hat, beschliesst Chise Hatori, sich bei einer Auktion anbieten zu lassen. Als sie auf der Bühne des Auktionshauses steht, taucht plötzlich ein mysteriöser Mann mit Wolfsschädel und Ziegenhörnern auf und macht ein Angebot, das niemand überbieten kann. Sein Name ist Elias Ainsworth, von Beruf Magier. Er nimmt Chise mit auf sein Anwesen und eröffnet ihr, dass sie von nun an seine Schülerin ist ...

oie_bchbujbgr3vm1-png.30596


Episoden: 24 / 24
Spieldauer: 24 Min.
Source: Deutsche Original BluRay
Release by: Fuuko
Format: mkv
Sprache: Deutsch [2.0] | Japanisch [2.0]
Untertitel: Deutsch (Full) | Deutsch (Forced)
Audio: AC-3 [384 kb/s] | DTS-HD [~1000 kb/s]
Auflösung : 1280x720 | 1920x1080
Größe: 650MB | 1500MB | 1750MB

oie_bchbujbgr3vm2-png.30597


Code:
Complete name               : Ancient.Magus.Bride.E01.German.AC3.DL.720p.BluRay.x264-Fuuko.mkv
Format                      : Matroska
Format version              : Version 4
File size                   : 631 MiB
Duration                    : 24 min 11 s
Overall bit rate            : 3 647 kb/s
Encoded date                : UTC 2019-11-15 18:56:03
Writing application         : mkvmerge v10.0.0 ('To Drown In You') 64bit
Writing library             : libebml v1.3.4 + libmatroska v1.4.5

Video
ID                          : 1
Format                      : AVC
Format/Info                 : Advanced Video Codec
Format profile              : [email protected]
Format settings             : CABAC / 4 Ref Frames
Format settings, CABAC      : Yes
Format settings, ReFrames   : 4 frames
Codec ID                    : V_MPEG4/ISO/AVC
Duration                    : 24 min 11 s
Bit rate                    : 2 865 kb/s
Width                       : 1 280 pixels
Height                      : 720 pixels
Display aspect ratio        : 16:9
Frame rate mode             : Constant
Frame rate                  : 23.976 (24000/1001) FPS
Color space                 : YUV
Chroma subsampling          : 4:2:0
Bit depth                   : 8 bits
Scan type                   : Progressive
Bits/(Pixel*Frame)          : 0.130
Stream size                 : 496 MiB (79%)
Writing library             : x264 core 157 r2935 545de2f
Encoding settings           : cabac=1 / ref=3 / deblock=1:0:0 / analyse=0x3:0x133 / me=umh / subme=9 / psy=1 / psy_rd=1.00:0.00 / mixed_ref=1 / me_range=32 / chroma_me=1 / trellis=2 / 8x8dct=1 / cqm=0 / deadzone=21,11 / fast_pskip=0 / chroma_qp_offset=-2 / threads=12 / lookahead_threads=1 / sliced_threads=0 / nr=0 / decimate=0 / interlaced=0 / bluray_compat=0 / constrained_intra=0 / bframes=3 / b_pyramid=2 / b_adapt=2 / b_bias=0 / direct=3 / weightb=1 / open_gop=0 / weightp=2 / keyint=250 / keyint_min=24 / scenecut=40 / intra_refresh=0 / rc_lookahead=48 / rc=crf / mbtree=1 / crf=16.0 / qcomp=0.70 / qpmin=0 / qpmax=69 / qpstep=4 / vbv_maxrate=62500 / vbv_bufsize=78125 / crf_max=0.0 / nal_hrd=none / filler=0 / ip_ratio=1.40 / aq=3:1.00
Default                     : Yes
Forced                      : No
Color range                 : Limited
Color primaries             : BT.709
Transfer characteristics    : BT.709
Matrix coefficients         : BT.709

Audio #1
ID                          : 2
Format                      : AC-3
Format/Info                 : Audio Coding 3
Commercial name             : Dolby Digital
Codec ID                    : A_AC3
Duration                    : 24 min 11 s
Bit rate mode               : Constant
Bit rate                    : 384 kb/s
Channel(s)                  : 2 channels
Channel layout              : L R
Sampling rate               : 48.0 kHz
Frame rate                  : 31.250 FPS (1536 SPF)
Bit depth                   : 16 bits
Compression mode            : Lossy
Stream size                 : 66.4 MiB (11%)
Language                    : German
Service kind                : Complete Main
Default                     : Yes
Forced                      : No

Audio #2
ID                          : 3
Format                      : AC-3
Format/Info                 : Audio Coding 3
Commercial name             : Dolby Digital
Codec ID                    : A_AC3
Duration                    : 24 min 11 s
Bit rate mode               : Constant
Bit rate                    : 384 kb/s
Channel(s)                  : 2 channels
Channel layout              : L R
Sampling rate               : 48.0 kHz
Frame rate                  : 31.250 FPS (1536 SPF)
Bit depth                   : 16 bits
Compression mode            : Lossy
Stream size                 : 66.4 MiB (11%)
Language                    : Japanese
Service kind                : Complete Main
Default                     : No
Forced                      : No

Text #1
ID                          : 4
Format                      : PGS
Muxing mode                 : zlib
Codec ID                    : S_HDMV/PGS
Codec ID/Info               : Picture based subtitle format used on BDs/HD-DVDs
Duration                    : 36 s 995 ms
Bit rate                    : 4 770 b/s
Count of elements           : 6
Stream size                 : 21.5 KiB (0%)
Language                    : German
Default                     : No
Forced                      : No

Text #2
ID                          : 5
Format                      : PGS
Muxing mode                 : zlib
Codec ID                    : S_HDMV/PGS
Codec ID/Info               : Picture based subtitle format used on BDs/HD-DVDs
Duration                    : 22 min 40 s
Bit rate                    : 12.8 kb/s
Count of elements           : 578
Stream size                 : 2.08 MiB (0%)
Language                    : German
Default                     : No
Forced                      : No

Menu
00:00:00.000                : en:(01)00:00:00:000
00:01:30.799                : en:(02)00:01:30:799
00:08:24.378                : en:(03)00:08:24:378
00:22:25.594                : en:(04)00:22:25:594
00:23:55.725                : en:(05)00:23:55:725
Code:
Complete name               : Ancient.Magus.Bride.E01.German.AC3.DL.1080p.BluRay.x264-Fuuko.mkv
Format                      : Matroska
Format version              : Version 4
File size                   : 1.47 GiB
Duration                    : 24 min 11 s
Overall bit rate            : 8 673 kb/s
Encoded date                : UTC 2019-11-15 18:56:27
Writing application         : mkvmerge v10.0.0 ('To Drown In You') 64bit
Writing library             : libebml v1.3.4 + libmatroska v1.4.5

Video
ID                          : 1
Format                      : AVC
Format/Info                 : Advanced Video Codec
Format profile              : [email protected]
Format settings             : CABAC / 4 Ref Frames
Format settings, CABAC      : Yes
Format settings, ReFrames   : 4 frames
Codec ID                    : V_MPEG4/ISO/AVC
Duration                    : 24 min 11 s
Bit rate                    : 7 891 kb/s
Width                       : 1 920 pixels
Height                      : 1 080 pixels
Display aspect ratio        : 16:9
Frame rate mode             : Constant
Frame rate                  : 23.976 (24000/1001) FPS
Color space                 : YUV
Chroma subsampling          : 4:2:0
Bit depth                   : 8 bits
Scan type                   : Progressive
Bits/(Pixel*Frame)          : 0.159
Stream size                 : 1.33 GiB (91%)
Writing library             : x264 core 157 r2935 545de2f
Encoding settings           : cabac=1 / ref=3 / deblock=1:0:0 / analyse=0x3:0x133 / me=umh / subme=9 / psy=1 / psy_rd=1.00:0.00 / mixed_ref=1 / me_range=32 / chroma_me=1 / trellis=2 / 8x8dct=1 / cqm=0 / deadzone=21,11 / fast_pskip=0 / chroma_qp_offset=-2 / threads=12 / lookahead_threads=1 / sliced_threads=0 / nr=0 / decimate=0 / interlaced=0 / bluray_compat=0 / constrained_intra=0 / bframes=3 / b_pyramid=2 / b_adapt=2 / b_bias=0 / direct=3 / weightb=1 / open_gop=0 / weightp=2 / keyint=250 / keyint_min=24 / scenecut=40 / intra_refresh=0 / rc_lookahead=48 / rc=crf / mbtree=1 / crf=16.0 / qcomp=0.70 / qpmin=0 / qpmax=69 / qpstep=4 / vbv_maxrate=62500 / vbv_bufsize=78125 / crf_max=0.0 / nal_hrd=none / filler=0 / ip_ratio=1.40 / aq=3:1.00
Default                     : Yes
Forced                      : No
Color range                 : Limited
Color primaries             : BT.709
Transfer characteristics    : BT.709
Matrix coefficients         : BT.709

Audio #1
ID                          : 2
Format                      : AC-3
Format/Info                 : Audio Coding 3
Commercial name             : Dolby Digital
Codec ID                    : A_AC3
Duration                    : 24 min 11 s
Bit rate mode               : Constant
Bit rate                    : 384 kb/s
Channel(s)                  : 2 channels
Channel layout              : L R
Sampling rate               : 48.0 kHz
Frame rate                  : 31.250 FPS (1536 SPF)
Bit depth                   : 16 bits
Compression mode            : Lossy
Stream size                 : 66.4 MiB (4%)
Language                    : German
Service kind                : Complete Main
Default                     : Yes
Forced                      : No

Audio #2
ID                          : 3
Format                      : AC-3
Format/Info                 : Audio Coding 3
Commercial name             : Dolby Digital
Codec ID                    : A_AC3
Duration                    : 24 min 11 s
Bit rate mode               : Constant
Bit rate                    : 384 kb/s
Channel(s)                  : 2 channels
Channel layout              : L R
Sampling rate               : 48.0 kHz
Frame rate                  : 31.250 FPS (1536 SPF)
Bit depth                   : 16 bits
Compression mode            : Lossy
Stream size                 : 66.4 MiB (4%)
Language                    : Japanese
Service kind                : Complete Main
Default                     : No
Forced                      : No

Text #1
ID                          : 4
Format                      : PGS
Muxing mode                 : zlib
Codec ID                    : S_HDMV/PGS
Codec ID/Info               : Picture based subtitle format used on BDs/HD-DVDs
Duration                    : 36 s 995 ms
Bit rate                    : 4 770 b/s
Count of elements           : 6
Stream size                 : 21.5 KiB (0%)
Language                    : German
Default                     : No
Forced                      : No

Text #2
ID                          : 5
Format                      : PGS
Muxing mode                 : zlib
Codec ID                    : S_HDMV/PGS
Codec ID/Info               : Picture based subtitle format used on BDs/HD-DVDs
Duration                    : 22 min 40 s
Bit rate                    : 12.8 kb/s
Count of elements           : 578
Stream size                 : 2.08 MiB (0%)
Language                    : German
Default                     : No
Forced                      : No

Menu
00:00:00.000                : en:(01)00:00:00:000
00:01:30.799                : en:(02)00:01:30:799
00:08:24.378                : en:(03)00:08:24:378
00:22:25.594                : en:(04)00:22:25:594
00:23:55.725                : en:(05)00:23:55:725
Code:
Complete name               : Ancient.Magus.Bride.E01.German.DTS.DL.1080p.BluRay.x264-Fuuko.mkv
Format                      : Matroska
Format version              : Version 4
File size                   : 1.67 GiB
Duration                    : 24 min 11 s
Overall bit rate mode       : Variable
Overall bit rate            : 9 874 kb/s
Encoded date                : UTC 2019-11-15 18:56:49
Writing application         : mkvmerge v10.0.0 ('To Drown In You') 64bit
Writing library             : libebml v1.3.4 + libmatroska v1.4.5

Video
ID                          : 1
Format                      : AVC
Format/Info                 : Advanced Video Codec
Format profile              : [email protected]
Format settings             : CABAC / 4 Ref Frames
Format settings, CABAC      : Yes
Format settings, ReFrames   : 4 frames
Codec ID                    : V_MPEG4/ISO/AVC
Duration                    : 24 min 11 s
Bit rate                    : 7 891 kb/s
Width                       : 1 920 pixels
Height                      : 1 080 pixels
Display aspect ratio        : 16:9
Frame rate mode             : Constant
Frame rate                  : 23.976 (24000/1001) FPS
Color space                 : YUV
Chroma subsampling          : 4:2:0
Bit depth                   : 8 bits
Scan type                   : Progressive
Bits/(Pixel*Frame)          : 0.159
Stream size                 : 1.33 GiB (80%)
Writing library             : x264 core 157 r2935 545de2f
Encoding settings           : cabac=1 / ref=3 / deblock=1:0:0 / analyse=0x3:0x133 / me=umh / subme=9 / psy=1 / psy_rd=1.00:0.00 / mixed_ref=1 / me_range=32 / chroma_me=1 / trellis=2 / 8x8dct=1 / cqm=0 / deadzone=21,11 / fast_pskip=0 / chroma_qp_offset=-2 / threads=12 / lookahead_threads=1 / sliced_threads=0 / nr=0 / decimate=0 / interlaced=0 / bluray_compat=0 / constrained_intra=0 / bframes=3 / b_pyramid=2 / b_adapt=2 / b_bias=0 / direct=3 / weightb=1 / open_gop=0 / weightp=2 / keyint=250 / keyint_min=24 / scenecut=40 / intra_refresh=0 / rc_lookahead=48 / rc=crf / mbtree=1 / crf=16.0 / qcomp=0.70 / qpmin=0 / qpmax=69 / qpstep=4 / vbv_maxrate=62500 / vbv_bufsize=78125 / crf_max=0.0 / nal_hrd=none / filler=0 / ip_ratio=1.40 / aq=3:1.00
Default                     : Yes
Forced                      : No
Color range                 : Limited
Color primaries             : BT.709
Transfer characteristics    : BT.709
Matrix coefficients         : BT.709

Audio #1
ID                          : 2
Format                      : DTS XLL
Format/Info                 : Digital Theater Systems
Commercial name             : DTS-HD Master Audio
Codec ID                    : A_DTS
Duration                    : 24 min 11 s
Bit rate mode               : Variable
Bit rate                    : 949 kb/s
Channel(s)                  : 2 channels
Channel layout              : L R
Sampling rate               : 48.0 kHz
Frame rate                  : 93.750 FPS (512 SPF)
Bit depth                   : 16 bits
Compression mode            : Lossless
Stream size                 : 164 MiB (10%)
Language                    : German
Default                     : Yes
Forced                      : No

Audio #2
ID                          : 3
Format                      : DTS XLL
Format/Info                 : Digital Theater Systems
Commercial name             : DTS-HD Master Audio
Codec ID                    : A_DTS
Duration                    : 24 min 11 s
Bit rate mode               : Variable
Bit rate                    : 1 012 kb/s
Channel(s)                  : 2 channels
Channel layout              : L R
Sampling rate               : 48.0 kHz
Frame rate                  : 93.750 FPS (512 SPF)
Bit depth                   : 16 bits
Compression mode            : Lossless
Stream size                 : 175 MiB (10%)
Language                    : Japanese
Default                     : No
Forced                      : No

Text #1
ID                          : 4
Format                      : PGS
Muxing mode                 : zlib
Codec ID                    : S_HDMV/PGS
Codec ID/Info               : Picture based subtitle format used on BDs/HD-DVDs
Duration                    : 36 s 995 ms
Bit rate                    : 7 011 b/s
Count of elements           : 6
Stream size                 : 31.7 KiB (0%)
Language                    : German
Default                     : No
Forced                      : No

Text #2
ID                          : 5
Format                      : PGS
Muxing mode                 : zlib
Codec ID                    : S_HDMV/PGS
Codec ID/Info               : Picture based subtitle format used on BDs/HD-DVDs
Duration                    : 22 min 40 s
Bit rate                    : 19.5 kb/s
Count of elements           : 578
Stream size                 : 3.16 MiB (0%)
Language                    : German
Default                     : No
Forced                      : No

Menu
00:00:00.000                : en:(01)00:00:00:000
00:01:30.799                : en:(02)00:01:30:799
00:08:24.378                : en:(03)00:08:24:378
00:22:25.594                : en:(04)00:22:25:594
00:23:55.725                : en:(05)00:23:55:725

oie_bchbujbgr3vm3-png.30598

cooltext396117611400625-png.30739

D91A0F0F73.png

cooltext3961176114006251-png.30741

4FFFB06A4A.png

To view the content, you need to Sign In or Register.

 
Zuletzt bearbeitet: